<?xml version="1.0" encoding="UTF-8" standalone="no"?> <svg xmlns="http://www.w3.org/2000/svg" xmlns:xlink="http://www.w3.org/1999/xlink" version="1.1"><metadata> Created by Christoph Koeberlin (http://christoph.koe.berlin) Copyright (c) 2017 Swiss Typefaces Sarl. All rights reserved. </metadata><defs><font id="Font"><glyph glyph-name="f_f.liga" unicode="ff" d="M30 32l27 2q13 1 21 2.5t12 5t5.5 11t1.5 21.5v351h-67v32q34 4 56.5 25.5t38.5 67.5q22 63 46.5 107t55.5 71t70 39.5t89 12.5h32v-139h-154q-48 0 -67 -14t-19 -42q0 -51 66 -83h135v-77h-134v-351q0 -14 2.5 -21t7.5 -10.5t14 -4t22 -1.5l61 -4v-33h-322v32zM402 32 l27 2q13 1 21 2.5t12 5t5.5 11t1.5 21.5v351h-67v32q34 4 56.5 25.5t38.5 67.5q22 63 46.5 107t55.5 71t70 39.5t89 12.5h32v-139h-154q-48 0 -67 -14t-19 -42q0 -51 66 -83h194l-48 -77h-145v-351q0 -14 2.5 -21t7.5 -10.5t14 -4t22 -1.5l61 -4v-33h-322v32z"></glyph><glyph glyph-name="f_i.liga" unicode="fi" d="M26 32l27 2q13 1 21 2.5t12 5t5.5 11t1.5 21.5v351h-67v32q34 4 56.5 25.5t38.5 67.5q22 63 46.5 107t55.5 71t70 39.5t89 12.5h32v-139h-154q-48 0 -67 -14t-19 -42q0 -51 66 -83h174l-48 -77h-125v-351q0 -14 2.5 -21t7.5 -10.5t14 -4t22 -1.5l61 -4v-33h-322v32z M409 32l27 2q13 1 21 2.5t12 5t5.5 11t1.5 21.5v283l-76 72v6l224 94v-455q0 -14 1.5 -21.5t5.5 -11t12 -5t21 -2.5l27 -2v-32h-282v32zM456 710q0 18 7.5 35t20.5 30t30 20.5t35 7.5q19 0 36 -7.5t30 -20.5t20.5 -30t7.5 -35q0 -19 -7.5 -36t-20.5 -30t-30 -20.5t-36 -7.5 q-18 0 -35 7.5t-30 20.5t-20.5 30t-7.5 36z"></glyph><glyph glyph-name="f_f_i.liga" unicode="ffi" d="M26 32l27 2q13 1 21 2.5t12 5t5.5 11t1.5 21.5v351h-67v32q34 4 56.5 25.5t38.5 67.5q22 63 46.5 107t55.5 71t70 39.5t89 12.5h32v-139h-154q-48 0 -67 -14t-19 -42q0 -51 66 -83h135v-77h-134v-351q0 -14 2.5 -21t7.5 -10.5t14 -4t22 -1.5l61 -4v-33h-322v32zM398 32 l27 2q13 1 21 2.5t12 5t5.5 11t1.5 21.5v351h-67v32q34 4 56.5 25.5t38.5 67.5q22 63 46.5 107t55.5 71t70 39.5t89 12.5h32v-139h-154q-48 0 -67 -14t-19 -42q0 -51 66 -83h174l-48 -77h-125v-351q0 -14 2.5 -21t7.5 -10.5t14 -4t22 -1.5l61 -4v-33h-322v32zM781 32l27 2 q13 1 21 2.5t12 5t5.5 11t1.5 21.5v283l-76 72v6l224 94v-455q0 -14 1.5 -21.5t5.5 -11t12 -5t21 -2.5l27 -2v-32h-282v32zM828 710q0 18 7.5 35t20.5 30t30 20.5t35 7.5q19 0 36 -7.5t30 -20.5t20.5 -30t7.5 -35q0 -19 -7.5 -36t-20.5 -30t-30 -20.5t-36 -7.5 q-18 0 -35 7.5t-30 20.5t-20.5 30t-7.5 36z"></glyph><glyph glyph-name="f_l.liga" unicode="fl" d="M404 32l27 2q13 1 21 2.5t12 5t5.5 11t1.5 21.5v581l-57 48v-62h-154q-48 0 -67 -14t-19 -42q0 -51 66 -83h166l-48 -77h-117v-351q0 -14 2.5 -21t7.5 -10.5t14 -4t22 -1.5l61 -4v-33h-322v32l27 2q13 1 21 2.5t12 5t5.5 11t1.5 21.5v351h-67v32q34 4 56.5 25.5 t38.5 67.5q22 63 46.5 107t55.5 71t70 39.5t89 12.5h32v-49l205 71v-728q0 -14 1.5 -21.5t5.5 -11t12 -5t21 -2.5l27 -2v-32h-282v32z"></glyph><glyph glyph-name="f_f_l.liga" unicode="ffl" d="M780 32l27 2q13 1 21 2.5t12 5t5.5 11t1.5 21.5v581l-57 48v-62h-154q-48 0 -67 -14t-19 -42q0 -51 66 -83h166l-48 -77h-117v-351q0 -14 2.5 -21t7.5 -10.5t14 -4t22 -1.5l61 -4v-33h-322v32l27 2q13 1 21 2.5t12 5t5.5 11t1.5 21.5v351h-67v32q34 4 56.5 25.5 t38.5 67.5q22 63 46.5 107t55.5 71t70 39.5t89 12.5h32v-49l205 71v-728q0 -14 1.5 -21.5t5.5 -11t12 -5t21 -2.5l27 -2v-32h-282v32zM30 32l27 2q13 1 21 2.5t12 5t5.5 11t1.5 21.5v351h-67v32q34 4 56.5 25.5t38.5 67.5q22 63 46.5 107t55.5 71t70 39.5t89 12.5h32v-139 h-154q-48 0 -67 -14t-19 -42q0 -51 66 -83h135v-77h-134v-351q0 -14 2.5 -21t7.5 -10.5t14 -4t22 -1.5l61 -4v-33h-322v32z"></glyph><glyph glyph-name=".notdef" d="M66 758h500v-758h-500v758zM316 396l217 343h-434zM85 30l221 349l-221 349v-698zM547 30v698l-220 -349zM533 19l-217 343l-217 -343h434z"></glyph><glyph glyph-name="glyph1"></glyph><glyph glyph-name="glyph2"></glyph><glyph glyph-name="space" unicode=" "></glyph><glyph glyph-name="exclam" unicode="!" d="M123 241q-3 66 -10 113t-15 84t-16.5 68.5t-15.5 65.5t-11.5 75t-4.5 98q0 11 13.5 19t33.5 11.5t43 4t43 -3.5t33.5 -12t13.5 -19q0 -57 -4.5 -98t-11.5 -75.5t-15.5 -65.5t-16.5 -68t-15 -84t-10 -113h-34zM138 -13q-20 0 -37 7.5t-30 21t-20.5 31.5t-7.5 39 q0 19 7.5 36.5t20.5 30.5t30 20.5t37 7.5q21 0 39 -7.5t31.5 -20.5t21 -30.5t7.5 -36.5q0 -42 -28.5 -70.5t-70.5 -28.5z"></glyph><glyph glyph-name="quotedbl" unicode="&quot;" d="M39 721q-7 32 9 45t63 13q46 0 62 -13t9 -45l-50 -238h-43zM249 721q-7 32 9 45t63 13q46 0 62 -13t9 -45l-50 -238h-43z"></glyph><glyph glyph-name="numbersign" unicode="#" d="M198 195h-172l30 72h171l90 221h-172l29 72h172l88 216h78l-88 -216h189l88 216h78l-88 -216h172l-29 -72h-172l-90 -221h172l-29 -72h-172l-79 -195h-78l79 195h-189l-79 -195h-78zM494 267l90 221h-189l-90 -221h189z"></glyph><glyph glyph-name="dollar" unicode="$" d="M270 -13q-47 0 -89 11t-74 29.5t-50.5 44.5t-18.5 56q0 19 9.5 35.5t26 26.5t39 13t48.5 -3q15 -151 119 -166v288l-53 22q-41 16 -74 37.5t-56 48.5t-36 61t-13 75q0 42 19 78.5t51 64t74 45t88 23.5v113h46v-111q44 -1 84 -10.5t70.5 -26.5t48.5 -40t18 -50 q0 -35 -33.5 -55.5t-90.5 -10.5q-8 68 -30 102t-67 43v-250l33 -13q51 -21 90.5 -43.5t66.5 -50.5t41 -62.5t14 -79.5q0 -47 -18 -88t-50 -72.5t-77.5 -52.5t-99.5 -28v-111h-46v107h-10zM445 160q0 47 -26 80.5t-93 62.5v-270q54 6 86.5 38t32.5 89zM280 500v234 q-46 -3 -77 -32t-31 -76q0 -46 26.5 -74.5t74.5 -48.5z"></glyph><glyph glyph-name="percent" unicode="%" d="M698 758h92l-566 -758h-92zM32 552q0 41 11 80.5t33 70t54 49.5t73 19q42 0 74.5 -19t54 -49.5t33 -70t11.5 -80.5t-11.5 -80t-33 -70t-54 -50t-74.5 -19q-41 0 -73 19t-54 50t-33 70t-11 80zM147 552q0 -36 1 -70.5t6.5 -61.5t16.5 -43.5t32 -16.5t32.5 16.5t17 43.5 t6.5 61.5t1 70.5t-1 70.5t-6.5 61.5t-17 43.5t-32.5 16.5t-32 -16.5t-16.5 -43.5t-6.5 -61.5t-1 -70.5zM546 211q0 41 11 80.5t33 70t54 49.5t73 19q42 0 74.5 -19t54 -49.5t33 -70t11.5 -80.5t-11.5 -80t-33 -70t-54 -50t-74.5 -19q-41 0 -73 19t-54 50t-33 70t-11 80z M661 211q0 -36 1 -70.5t6.5 -61.5t16.5 -43.5t32 -16.5t32.5 16.5t17 43.5t6.5 61.5t1 70.5t-1 70.5t-6.5 61.5t-17 43.5t-32.5 16.5t-32 -16.5t-16.5 -43.5t-6.5 -61.5t-1 -70.5z"></glyph><glyph glyph-name="ampersand" unicode="&amp;" d="M308 -13q-68 0 -117.5 20t-82 52t-48.5 71.5t-16 78.5q0 43 17.5 78t46 63t65.5 49t75 37q-51 45 -70.5 86.5t-19.5 79.5q0 36 17.5 68t48 56.5t72.5 38.5t92 14q91 0 143 -36t52 -96q0 -33 -16.5 -58t-43 -44.5t-59 -34t-63.5 -26.5q45 -38 101 -95t113 -121l72 123 q23 38 17.5 56t-37.5 20l-51 3v32h257v-32l-40 -2q-27 -2 -45.5 -16.5t-36.5 -43.5l-106 -175q48 -57 86 -110q26 -38 52.5 -62t51.5 -26l30 -3v-32h-238q-14 22 -33 49t-42 57q-50 -54 -110.5 -86.5t-133.5 -32.5zM200 269q0 -40 11.5 -76.5t34 -64.5t55.5 -44.5t75 -16.5 q44 0 81.5 18t70.5 53q-29 36 -60.5 73.5t-64.5 74t-67 70t-66 61.5q-42 -28 -56 -68.5t-14 -79.5zM293 656q0 -45 22.5 -80t64.5 -73q50 20 71 56.5t21 78.5q0 50 -22 76.5t-64 26.5q-48 0 -70.5 -23.5t-22.5 -61.5z"></glyph><glyph glyph-name="quotesingle" unicode="'" d="M39 721q-7 32 9 45t63 13q46 0 62 -13t9 -45l-50 -238h-43z"></glyph><glyph glyph-name="parenleft" unicode="(" d="M283 -248q-66 53 -113 115.5t-78 132t-45.5 144t-14.5 151.5t14.5 151.5t45.5 144t78 132t113 115.5l21 -21q-49 -54 -77.5 -117.5t-43 -131t-18.5 -137t-4 -136.5t4 -136.5t18.5 -137t43 -131t77.5 -117.5z"></glyph><glyph glyph-name="parenright" unicode=")" d="M42 837q66 -53 113 -115.5t78 -132t45.5 -144t14.5 -151.5t-14.5 -151.5t-45.5 -144t-78 -132t-113 -115.5l-21 21q49 54 77.5 117.5t43 131t18.5 137t4 136.5t-4 136.5t-18.5 137t-43 131t-77.5 117.5z"></glyph><glyph glyph-name="asterisk" unicode="*" d="M109 426l71 146l-143 75l9 27l160 -23l27 159h28l28 -159l160 22l9 -27l-143 -76l71 -144l-23 -17l-116 113l-115 -112z"></glyph><glyph glyph-name="plus" unicode="+" d="M283 225h-229v75h229v216h79v-216h229v-75h-229v-225h-79v225z"></glyph><glyph glyph-name="comma" unicode="," d="M43 -156q94 55 94 130q0 71 -96 92q-1 22 6.5 42t21 35.5t33.5 24.5t44 9q44 0 73.5 -29t29.5 -83q0 -35 -13.5 -70.5t-38 -68.5t-59.5 -62.5t-78 -52.5z"></glyph><glyph glyph-name="hyphen" unicode="-" d="M56 303h294v-81h-294v81z"></glyph><glyph glyph-name="period" unicode="." d="M138 -13q-20 0 -37 7.5t-30 21t-20.5 31.5t-7.5 39q0 19 7.5 36.5t20.5 30.5t30 20.5t37 7.5q21 0 39 -7.5t31.5 -20.5t21 -30.5t7.5 -36.5q0 -42 -28.5 -70.5t-70.5 -28.5z"></glyph><glyph glyph-name="slash" unicode="/" d="M365 806h100l-343 -858h-100z"></glyph><glyph glyph-name="zero" unicode="0" d="M40 383q0 71 19.5 141.5t57 127t93 92t127.5 35.5q73 0 128.5 -35.5t93 -92t57 -127t19.5 -141.5t-19.5 -141.5t-57 -127t-93 -92t-128.5 -35.5q-72 0 -127.5 35.5t-93 92t-57 127t-19.5 141.5zM206 383q0 -72 5.5 -136t20 -112.5t40 -76.5t65.5 -28t65.5 28t40.5 76.5 t20.5 112.5t5.5 136t-5.5 136t-20.5 112.5t-40.5 76.5t-65.5 28t-65.5 -28t-40 -76.5t-20 -112.5t-5.5 -136z"></glyph><glyph glyph-name="one" unicode="1" d="M143 670l-125 -50v37l273 114v-697q0 -14 1.5 -21.5t5.5 -11t12 -5t21 -2.5l27 -2v-32h-292v32l37 2q13 1 21 2t12 5t5.5 11.5t1.5 21.5v596z"></glyph><glyph glyph-name="two" unicode="2" d="M-1 4q95 97 163.5 178t113 149t65.5 125t21 106q0 27 -6.5 51.5t-20.5 43.5t-36.5 30.5t-55.5 11.5q-28 0 -53.5 -9.5t-45 -30.5t-33 -53t-17.5 -77h-35q1 63 20.5 110t52.5 78t77 46.5t94 15.5q56 0 97 -15t67.5 -40.5t39.5 -58.5t13 -69q0 -46 -21.5 -91.5t-55.5 -88.5 t-74.5 -83t-78.5 -75l-138 -127h211q31 0 52 2t36 8t24.5 17t18.5 30l15 33h35l-53 -221h-492v4z"></glyph><glyph glyph-name="three" unicode="3" d="M203 -13q-37 0 -70 9t-58 25.5t-39.5 39.5t-14.5 51q0 17 7.5 33t22.5 27t36 15.5t48 -0.5q14 -69 45.5 -109.5t91.5 -40.5q21 0 45 8.5t44.5 26.5t34 46.5t13.5 69.5q0 46 -15.5 82t-40.5 61t-56.5 38t-63.5 13q-23 0 -41 -4t-34 -12l-12 37l48 19q34 13 64 33t52 43 t34.5 48.5t12.5 50.5q0 52 -32.5 77t-77.5 25q-22 0 -45.5 -6t-43.5 -22t-35.5 -42.5t-22.5 -68.5h-35q12 103 75 161t175 58q36 0 69.5 -8.5t59 -25t40.5 -39.5t15 -52q0 -54 -41.5 -90t-115.5 -63v-3q48 -12 85.5 -33.5t63 -50t38.5 -63.5t13 -72q0 -65 -29 -118.5 t-76.5 -92t-108.5 -60t-125 -21.5z"></glyph><glyph glyph-name="four" unicode="4" d="M369 190h-374l389 568h133v-461h133v-107h-133v-190h-148v190zM369 297v361l-243 -361h243z"></glyph><glyph glyph-name="five" unicode="5" d="M193 -13q-37 0 -70 9t-58 25t-39.5 39t-14.5 51q0 17 7.5 33t22.5 27t36 15.5t48 -0.5q13 -65 47 -104.5t94 -39.5q29 0 54 10.5t43 28t28.5 41.5t10.5 51q0 38 -17 71t-54.5 60.5t-97 49.5t-145.5 39l95 365h358l-38 -138h-314l-22 -79q175 -33 258.5 -107.5 t83.5 -181.5q0 -50 -22.5 -97.5t-64 -84.5t-99.5 -60t-130 -23z"></glyph><glyph glyph-name="six" unicode="6" d="M589 238q0 -55 -22.5 -101t-60 -79.5t-86.5 -52t-102 -18.5q-62 0 -114.5 20.5t-90.5 58t-59 89.5t-21 115q0 80 40.5 162t114 156t176.5 134.5t229 97.5l11 -31q-86 -34 -152 -79.5t-114.5 -98t-79.5 -110t-46 -114.5q33 31 71 51t92 20q41 0 79.5 -12t68.5 -38.5 t48 -68t18 -101.5zM198 277q0 -53 9 -98.5t25.5 -79t39.5 -52.5t52 -19q51 0 75.5 47.5t24.5 129.5q0 90 -33.5 137.5t-90.5 47.5q-27 0 -49.5 -7.5t-45.5 -31.5q-4 -19 -5.5 -37.5t-1.5 -36.5z"></glyph><glyph glyph-name="seven" unicode="7" d="M608 758l-255 -367q-41 -59 -68 -110.5t-44 -94t-26 -75t-15 -52.5t-11.5 -32t-13 -18t-16.5 -8.5t-21 -3.5l-66 -8q-11 -2 -21.5 0t-16 7.5t-5 16t11.5 26.5q49 74 97.5 141.5t100.5 136t110 142.5t127 161h-257q-35 0 -57 -2.5t-37 -10t-25 -22t-20 -38.5l-7 -17h-35 l53 228h517z"></glyph><glyph glyph-name="eight" unicode="8" d="M289 -13q-54 0 -100 14t-79.5 39.5t-52.5 61t-19 79.5q0 61 41.5 104.5t117.5 76.5q-54 35 -90 86t-36 124q0 47 18.5 85.5t50.5 65.5t74.5 41.5t89.5 14.5q45 0 84.5 -11t69.5 -31.5t47 -49t17 -64.5q0 -60 -39.5 -101t-107.5 -73l2 -1q39 -21 71 -44.5t55.5 -51.5 t36.5 -63t13 -79q0 -53 -23 -94.5t-60.5 -70t-84.5 -43.5t-96 -15zM350 463q46 29 63.5 66.5t17.5 76.5q0 56 -34 92.5t-98 36.5q-58 0 -92.5 -26.5t-34.5 -74.5q0 -46 32 -76.5t87 -61.5zM139 188q0 -33 11 -61.5t31 -49.5t49 -33.5t64 -12.5q69 0 108.5 32t39.5 89 q0 24 -11 44.5t-30 39t-45 35t-56 33.5l-79 44q-40 -26 -61 -65.5t-21 -94.5z"></glyph><glyph glyph-name="nine" unicode="9" d="M49.9971 527.968q0 54.9971 22.498 100.994q22.499 45.9971 59.9971 79.4951q37.4971 33.498 86.4941 51.9961q48.9971 18.499 101.994 18.499q61.9961 0 114.493 -20.498q52.4971 -20.499 90.4941 -57.9971q37.998 -37.4971 58.9961 -89.4941 q20.999 -51.9971 20.999 -114.993q0 -79.9951 -40.4971 -161.99q-40.498 -81.9951 -113.993 -155.99q-73.4961 -73.9951 -176.489 -134.492q-102.994 -60.4961 -228.986 -97.4941l-10.999 30.998q85.9941 33.998 151.99 79.4951q65.9961 45.498 114.493 97.9941 q48.4971 52.4971 79.4951 109.993q30.998 57.4971 45.9971 114.493q-32.998 -30.998 -70.9951 -50.9961q-37.998 -19.999 -91.9941 -19.999q-40.998 0 -79.4961 11.999q-38.4971 11.999 -68.4951 38.498q-29.998 26.498 -47.9971 67.9951q-17.999 41.498 -17.999 101.494z M440.973 488.97q0 52.9971 -8.99902 98.4941t-25.498 78.9951t-39.498 52.4971t-51.9971 18.999q-50.9961 0 -75.4951 -47.4971q-24.498 -47.4971 -24.498 -129.492q0 -89.9941 33.4971 -137.491q33.498 -47.498 90.4951 -47.498q26.998 0 49.4971 7.5 q22.498 7.5 45.4971 31.498q4 18.999 5.5 37.498q1.49902 18.499 1.49902 36.4971z"></glyph><glyph glyph-name="colon" unicode=":" d="M150 -13q-20 0 -37 7.5t-30 21t-20.5 31.5t-7.5 39q0 19 7.5 36.5t20.5 30.5t30 20.5t37 7.5q21 0 39 -7.5t31.5 -20.5t21 -30.5t7.5 -36.5q0 -42 -28.5 -70.5t-70.5 -28.5zM150 327q-20 0 -37 7.5t-30 21t-20.5 31.5t-7.5 39q0 19 7.5 36.5t20.5 30.5t30 20.5t37 7.5 q21 0 39 -7.5t31.5 -20.5t21 -30.5t7.5 -36.5q0 -42 -28.5 -70.5t-70.5 -28.5z"></glyph><glyph glyph-name="semicolon" unicode=";" d="M150 327q-20 0 -37 7.5t-30 21t-20.5 31.5t-7.5 39q0 19 7.5 36.5t20.5 30.5t30 20.5t37 7.5q21 0 39 -7.5t31.5 -20.5t21 -30.5t7.5 -36.5q0 -42 -28.5 -70.5t-70.5 -28.5zM55 -156q94 55 94 130q0 71 -96 92q-1 22 6.5 42t21 35.5t33.5 24.5t44 9q44 0 73.5 -29 t29.5 -83q0 -35 -13.5 -70.5t-38 -68.5t-59.5 -62.5t-78 -52.5z"></glyph><glyph glyph-name="less" unicode="&lt;" d="M49 297l527 225v-81l-423 -179l423 -179v-81l-527 226v69z"></glyph><glyph glyph-name="equal" unicode="=" d="M69 409h507v-75h-507v75zM69 179h507v-75h-507v75z"></glyph><glyph glyph-name="greater" unicode="&gt;" d="M604 228l-527 -226v81l423 179l-423 179v81l527 -225v-69z"></glyph><glyph glyph-name="question" unicode="?" d="M282 733q-26 0 -47.5 -6t-37 -20.5t-24.5 -39t-9 -61.5q-23 -1 -46.5 3t-43 14t-32 25.5t-12.5 38.5q0 22 16 39t43 29t63 18t77 6q70 0 127.5 -18.5t98.5 -52t63 -81.5t22 -106q0 -31 -7 -58.5t-26 -49.5t-52 -37.5t-85 -22.5l-124 -16q-22 -3 -27.5 -8t-6.5 -25l-3 -71 h-32l-28 167q-5 30 -1.5 48t15.5 27.5t32 14t47 7.5l123 15q33 4 53 11t30.5 17t14 22t3.5 27q0 30 -16.5 56t-43 45.5t-59.5 31t-65 11.5zM196 -13q-20 0 -37 7.5t-30 21t-20.5 31.5t-7.5 39q0 19 7.5 36.5t20.5 30.5t30 20.5t37 7.5q21 0 39 -7.5t31.5 -20.5t21 -30.5 t7.5 -36.5q0 -42 -28.5 -70.5t-70.5 -28.5z"></glyph><glyph glyph-name="at" unicode="@" d="M562 158q-25 0 -40 6.5t-15 20.5q0 11 6 26l14 35l30 76h-5q-24 -35 -49.5 -64.5t-52.5 -51.5t-55 -34t-58 -12q-44 0 -72 25.5t-28 73.5q0 40 18 82t48 81.5t69 74.5t80 61.5t82 41.5t75 15q22 0 42.5 -5t40 -12.5t37 -15.5t32.5 -13l-125 -315q-6 -16 -9 -24.5 t-3 -13.5q0 -6 6 -6q24 0 65 16t80 49.5t67.5 85.5t28.5 125q0 63 -24.5 110.5t-66 78.5t-96 46.5t-113.5 15.5q-90 0 -168.5 -35.5t-137 -95.5t-92 -139t-33.5 -167q0 -70 21.5 -124t61 -91.5t95.5 -57t124 -19.5q70 0 120.5 13.5t79.5 27.5l13 -30q-37 -19 -92.5 -34.5 t-132.5 -15.5t-147.5 22t-123.5 63.5t-84.5 102t-31.5 138.5q0 61 20 121t56 114t85.5 99.5t108 78.5t125 52t135.5 19q66 0 128.5 -17.5t111 -53.5t78.5 -91t30 -131q0 -73 -30 -133t-80 -103.5t-114.5 -67.5t-134.5 -24zM402 233q15 0 39 12.5t52 39t56.5 68t51.5 100.5 l42 107q-7 19 -43 19q-35 0 -76 -29.5t-76 -74t-58.5 -96t-23.5 -96.5q0 -25 8 -37.5t28 -12.5z"></glyph><glyph glyph-name="A" unicode="A" d="M685 85q11 -26 24.5 -34t39.5 -11l33 -4v-36h-344v36l43 4q26 2 35.5 10.5t-1.5 34.5l-64 162h-257l-65 -162q-11 -26 -1.5 -34.5t35.5 -10.5l43 -4v-36h-231v36l33 4q26 3 39.5 11t24.5 34l297 723h20zM218 306h209l-104 262z"></glyph><glyph glyph-name="B" unicode="B" d="M42 36l45 4q26 2 35 11t9 38v580q0 29 -9 38t-35 11l-45 4v36h331q141 0 217.5 -40t76.5 -128q0 -73 -57.5 -121.5t-166.5 -62.5v-2q66 0 118 -11.5t89 -34t56.5 -56t19.5 -78.5q0 -53 -23 -94.5t-65 -70t-101 -44t-131 -15.5h-364v36zM360 424q77 0 108 39t31 107 q0 34 -7 60.5t-23.5 45t-43 28.5t-64.5 10h-70v-290h69zM366 44q43 0 77 8t57.5 27.5t36 51.5t12.5 80t-12.5 80t-36 52t-57.5 28.5t-77 8.5h-75v-336h75z"></glyph><glyph glyph-name="C" unicode="C" d="M477 -13q-99 0 -180.5 28.5t-139 80.5t-89.5 125t-32 162t32 162t91 125t141 80.5t183 28.5q62 0 124 -9.5t107 -25.5l46 -262h-22l-132 192q-17 25 -32 35t-27 15q-11 4 -30.5 6.5t-41.5 2.5q-48 0 -95 -16t-84 -53t-60 -97.5t-23 -150.5q0 -76 16 -145.5t50 -122 t86.5 -84t125.5 -31.5q22 0 41.5 2.5t30.5 6.5q12 5 27 15t32 35l132 192h22l-53 -262q-22 -8 -51.5 -14.5t-62 -11t-66.5 -7t-66 -2.5z"></glyph><glyph glyph-name="D" unicode="D" d="M42 36l45 4q26 2 35 11t9 38v580q0 29 -9 38t-35 11l-45 4v36h301q100 0 185 -24.5t147 -72t96.5 -117t34.5 -159.5t-34.5 -161.5t-95.5 -121t-144.5 -76t-180.5 -26.5h-309v36zM343 44q63 0 115 16.5t89.5 53t58.5 95t21 142.5q0 190 -72 276.5t-218 86.5h-46v-670h52z "></glyph><glyph glyph-name="E" unicode="E" d="M42 36l45 4q26 2 35 11t9 38v580q0 29 -9 38t-35 11l-45 4v36h596l37 -271h-22l-143 207q-8 12 -14.5 15t-22.5 3h-182v-293h116q13 0 17 11l48 131h22v-336h-22l-48 131q-4 11 -17 11h-116v-321h227q14 0 18.5 2.5t12.5 11.5l184 211h22l-75 -271h-638v36z"></glyph><glyph glyph-name="F" unicode="F" d="M42 36l45 4q26 2 35 11t9 38v580q0 29 -9 38t-35 11l-45 4v36h618l37 -271h-22l-143 207q-8 12 -14.5 15t-22.5 3h-204v-293h130q13 0 17 11l48 131h22v-336h-22l-48 131q-4 11 -17 11h-130v-278q0 -29 9 -37t35 -10l80 -4v-38h-373v36z"></glyph><glyph glyph-name="G" unicode="G" d="M476 -13q-99 0 -180.5 28.5t-139 80.5t-89.5 125t-32 162t33 162t92 125t141 80.5t181 28.5q62 0 124 -9.5t107 -25.5l46 -262h-22l-132 192q-17 25 -32 35t-27 15q-11 4 -30.5 6.5t-41.5 2.5q-47 0 -93.5 -16t-84 -53t-61 -97.5t-23.5 -150.5q0 -76 16 -145t50 -121.5 t86.5 -83.5t125.5 -31q23 0 54.5 2.5t57.5 8.5v214q0 29 -9 37.5t-35 10.5l-81 4v41h374v-45h-89v-202l4 -71q-26 -9 -61 -18t-74 -15.5t-79 -10.5t-76 -4z"></glyph><glyph glyph-name="H" unicode="H" d="M42 36l45 4q26 2 35 11t9 38v580q0 29 -9 38t-35 11l-45 4v36h338v-36l-45 -4q-26 -2 -35 -11t-9 -38v-242h321v242q0 29 -9 38t-35 11l-45 4v36h338v-36l-45 -4q-26 -2 -35 -11t-9 -38v-580q0 -29 9 -38t35 -11l45 -4v-36h-338v36l45 4q26 2 35 11t9 38v279h-321v-279 q0 -29 9 -38t35 -11l45 -4v-36h-338v36z"></glyph><glyph glyph-name="I" unicode="I" d="M42 36l45 4q26 2 35 11t9 38v580q0 29 -9 38t-35 11l-45 4v36h338v-36l-45 -4q-26 -2 -35 -11t-9 -38v-580q0 -29 9 -38t35 -11l45 -4v-36h-338v36z"></glyph><glyph glyph-name="J" unicode="J" d="M-13 -75q44 37 73 63t45.5 52t23 57t6.5 79v497q0 28 -8 34.5t-34 7.5l-53 2v41h350v-41l-53 -2q-26 -1 -34 -7.5t-8 -34.5v-459q0 -41 -9 -69.5t-25 -51.5t-38.5 -42t-48.5 -40q-13 -11 -33 -25t-42.5 -30t-46 -32t-42.5 -29z"></glyph><glyph glyph-name="K" unicode="K" d="M42 36l45 4q26 2 35 11t9 38v580q0 29 -9 38t-35 11l-45 4v36h338v-36l-45 -4q-26 -2 -35 -11t-9 -38v-294l306 313q11 11 6.5 19.5t-27.5 10.5l-73 4v36h298v-36l-51 -3q-34 -2 -52.5 -10.5t-35.5 -25.5l-226 -231l412 -452h-223l-334 367v-278q0 -29 9 -38t35 -11 l45 -4v-36h-338v36z"></glyph><glyph glyph-name="L" unicode="L" d="M42 36l45 4q26 2 35 11t9 38v580q0 29 -9 38t-35 11l-45 4v36h338v-36l-45 -4q-26 -2 -35 -11t-9 -38v-623h187q14 0 18.5 2.5t12.5 11.5l184 211h22l-75 -271h-598v36z"></glyph><glyph glyph-name="M" unicode="M" d="M22 36l45 4q26 2 34 11t10 38l40 580q2 29 -8 38t-36 11l-45 4v36h295l172 -393l165 393h279v-36l-45 -4q-26 -2 -36 -11t-8 -38l40 -580q2 -29 10 -38t34 -11l45 -4v-36h-338v36l45 4q26 2 36 11t8 38l-40 609l-252 -589h-6l-259 586l-40 -606q-2 -29 8 -38t36 -11 l45 -4v-36h-234v36z"></glyph><glyph glyph-name="N" unicode="N" d="M46 36l45 4q26 2 35 11t9 38v558l-101 109v2h210l456 -475v386q0 29 -9 38t-35 11l-45 4v36h234v-36l-45 -4q-26 -2 -35 -11t-9 -38v-686h-4l-561 604v-498q0 -29 9 -38t35 -11l45 -4v-36h-234v36z"></glyph><glyph glyph-name="O" unicode="O" d="M446 -13q-80 0 -154 26.5t-131 77.5t-91 124.5t-34 167.5t34 167.5t91 124.5t131 77.5t154 26.5t154 -26.5t131 -77.5t91 -124.5t34 -167.5t-34 -167.5t-91 -124.5t-131 -77.5t-154 -26.5zM446 35q108 0 170 88.5t62 259.5t-62 259.5t-170 88.5t-170 -88.5t-62 -259.5 t62 -259.5t170 -88.5z"></glyph><glyph glyph-name="P" unicode="P" d="M42 36l45 4q26 2 35 11t9 38v580q0 29 -9 38t-35 11l-45 4v36h330q71 0 132.5 -9t106.5 -32.5t71 -63t26 -99.5t-26 -101t-71 -66t-106.5 -36t-132.5 -11h-56v45h49q90 0 128 40t38 123t-38 124.5t-128 41.5h-74v-625q0 -29 9 -37t35 -10l80 -4v-38h-373v36z"></glyph><glyph glyph-name="Q" unicode="Q" d="M191 -138q0 29 26 53.5t91 50.5l66 27q-69 11 -130.5 42t-107.5 80.5t-73 117t-27 150.5q0 94 34 167.5t91 124.5t131 77.5t154 26.5t154 -26.5t131 -77.5t91 -124.5t34 -167.5t-34 -167.5t-90.5 -124t-130.5 -77.5t-154 -27l-174 -68q26 8 54.5 10.5t48.5 2.5 q58 0 105.5 -10t89 -22t78 -22t71.5 -10q44 0 77 22.5t57 73.5l34 -11q-16 -39 -35.5 -77t-42 -69t-48.5 -50t-55 -19q-50 0 -100.5 25.5t-99.5 56t-96 56t-90 25.5q-28 0 -49 -10q2 -20 -1.5 -33.5t-10.5 -21.5t-16 -11.5t-18 -3.5q-15 0 -25 12t-10 29zM446 35 q108 0 170 88.5t62 259.5t-62 259.5t-170 88.5t-170 -88.5t-62 -259.5t62 -259.5t170 -88.5z"></glyph><glyph glyph-name="R" unicode="R" d="M42 36l45 4q26 2 35 11t9 38v580q0 29 -9 38t-35 11l-45 4v36h317q75 0 135.5 -10t103 -31.5t65.5 -56t23 -83.5q0 -30 -10.5 -59t-33 -53.5t-59 -44t-88.5 -29.5l327 -391h-202l-305 369h-24v-280q0 -29 9 -38t35 -11l45 -4v-36h-338v36zM351 414q84 0 121 40t37 110 t-37 110t-121 40h-60v-300h60z"></glyph><glyph glyph-name="S" unicode="S" d="M310 -13q-52 0 -108 8t-107 29l-47 246h22l140 -196q14 -20 24.5 -26t22.5 -9q27 -6 58 -6q30 0 56.5 7t46.5 22t32 37t12 52q0 58 -40.5 94.5t-119.5 61.5l-54 17q-94 29 -142 88.5t-48 147.5q0 57 25 98.5t66 68t93 39.5t107 13q42 0 82 -6.5t75 -20.5l48 -235h-22 l-140 186q-12 17 -18 20.5t-16 5.5q-15 3 -32 3q-28 0 -53.5 -7t-45.5 -21.5t-32 -36t-12 -50.5q0 -42 24 -75t85 -53l54 -17q54 -17 99 -38.5t77 -51t49.5 -69t17.5 -93.5q0 -56 -25 -99.5t-65 -73t-90 -45t-99 -15.5z"></glyph><glyph glyph-name="T" unicode="T" d="M193 38l70 4q26 2 35 10t9 37v628h-107q-16 0 -22.5 -2.5t-14.5 -15.5l-128 -212h-22l22 271h704l22 -271h-22l-128 212q-8 13 -14.5 15.5t-22.5 2.5h-107v-628q0 -29 9 -37t35 -10l70 -4v-38h-388v38z"></glyph><glyph glyph-name="U" unicode="U" d="M433 -13q-76 0 -136 18t-101.5 55.5t-63.5 95.5t-22 139v374q0 29 -9 38t-35 11l-45 4v36h338v-36l-45 -4q-26 -2 -35 -11t-9 -38v-377q0 -66 13.5 -110.5t40 -71.5t64.5 -38.5t87 -11.5q103 0 159 58t56 188v363q0 29 -9 38t-35 11l-45 4v36h234v-36l-45 -4 q-26 -2 -35 -11t-9 -38v-373q0 -152 -80.5 -230.5t-232.5 -78.5z"></glyph><glyph glyph-name="V" unicode="V" d="M72 673q-11 26 -24.5 34t-39.5 11l-33 4v36h345v-36l-43 -4q-26 -2 -35.5 -10.5t1.5 -34.5l196 -469l198 469q11 26 1.5 34.5t-35.5 10.5l-43 4v36h232v-36l-33 -4q-26 -3 -39.5 -11t-24.5 -34l-302 -704h-20z"></glyph><glyph glyph-name="W" unicode="W" d="M72 673q-11 26 -24.5 34t-39.5 11l-33 4v36h345v-36l-43 -4q-26 -2 -35.5 -10.5t1.5 -34.5l196 -469l127 295l-103 259h322v-36l-81 -4q-26 -2 -35 -10.5t1 -34.5l173 -469l198 469q11 26 1.5 34.5t-35.5 10.5l-43 4v36h232v-36l-33 -4q-26 -3 -39.5 -11t-24.5 -34 l-302 -704h-20l-184 464l-200 -464h-20z"></glyph><glyph glyph-name="X" unicode="X" d="M-9 36l33 4q26 3 47 13t39 32l227 272l-214 316q-16 23 -32 32.5t-42 12.5l-33 4v36h358v-36l-43 -4q-26 -2 -33 -12t9 -33l131 -194l162 194q19 22 16.5 32.5t-28.5 12.5l-43 4v36h237v-36l-33 -4q-26 -3 -47 -13t-39 -32l-196 -236l238 -352q16 -23 32 -32.5t42 -12.5 l33 -4v-36h-358v36l43 4q26 2 33 12t-9 33l-156 230l-192 -230q-19 -22 -16.5 -32.5t28.5 -12.5l43 -4v-36h-237v36z"></glyph><glyph glyph-name="Y" unicode="Y" d="M186 38l70 4q26 2 35 10t9 37v253l-220 331q-8 12 -14 20t-13 13t-15.5 7.5t-21.5 4.5l-33 4v36h350v-36l-43 -4q-26 -2 -38 -11.5t4 -33.5l180 -276l184 276q16 25 4 34t-38 11l-43 4v36h234v-36l-33 -4q-26 -3 -37 -11.5t-27 -33.5l-220 -332v-252q0 -29 9 -37t35 -10 l70 -4v-38h-388v38z"></glyph><glyph glyph-name="Z" unicode="Z" d="M10 12l484 702h-210q-16 0 -21.5 -3.5t-15.5 -14.5l-183 -209h-22l77 271h572v-12l-481 -702h262q16 0 21.5 3.5t15.5 14.5l183 209h22l-77 -271h-627v12z"></glyph><glyph glyph-name="bracketleft" unicode="[" d="M92 826h213v-34l-37 -2q-24 -1 -39.5 -5.5t-24.5 -14t-12.5 -25t-3.5 -39.5v-824q0 -24 3.5 -39.5t12.5 -25t24.5 -14t39.5 -5.5l37 -2v-34h-213v1064z"></glyph><glyph glyph-name="backslash" unicode="\" d="M364 -52l-343 858h100l343 -858h-100z"></glyph><glyph glyph-name="bracketright" unicode="]" d="M230 -238h-213v34l37 2q24 1 39.5 5.5t24.5 14t12.5 25t3.5 39.5v824q0 24 -3.5 39.5t-12.5 25t-24.5 14t-39.5 5.5l-37 2v34h213v-1064z"></glyph><glyph glyph-name="asciicircum" unicode="^" d="M285 776h74l206 -415h-80l-163 333l-163 -333h-80z"></glyph><glyph glyph-name="underscore" unicode="_" d="M-4 -75h534v-71h-534v71z"></glyph><glyph glyph-name="grave" unicode="`" d="M93 609l-230 168v11h148l110 -179h-28z"></glyph><glyph glyph-name="a" unicode="a" d="M194 -13q-36 0 -65.5 11.5t-51.5 30.5t-34 44t-12 53q0 36 18.5 60.5t47 42t61.5 29.5t63 23q39 14 62 28t34.5 28.5t15 31t3.5 35.5q0 35 -21.5 59t-59.5 24q-57 0 -79 -40t-5 -106q-20 -5 -36.5 -6.5t-30.5 -1.5q-41 0 -58.5 18t-17.5 37q0 16 10.5 30t28.5 27t41 24 t47 20q34 13 72.5 23.5t91.5 10.5q33 0 61.5 -7.5t49.5 -24t33 -44t11 -66.5l-8 -315h78v-32l-194 -45l-20 89q-20 -51 -56 -71t-80 -20zM262 48q11 0 22.5 6t21 19t15.5 33.5t6 50.5l1 153q-14 -12 -25.5 -19t-28.5 -18q-42 -26 -60 -57t-18 -69q0 -17 4.5 -35t13 -32 t20.5 -23t28 -9z"></glyph><glyph glyph-name="b" unicode="b" d="M354 521q42 0 79.5 -17.5t66 -51.5t45.5 -84t17 -115q0 -60 -18 -109t-49.5 -84t-73 -54t-89.5 -19q-45 0 -78.5 17t-52.5 41l-123 -63l-7 4v669l-76 64v6l224 77v-343q24 27 59.5 44.5t75.5 17.5zM277 452q-14 0 -29 -4t-29 -16v-364q12 -13 26.5 -18t28.5 -5 q53 0 88 54t35 153q0 45 -9 81.5t-25.5 63t-38.5 41t-47 14.5z"></glyph><glyph glyph-name="c" unicode="c" d="M287 -13q-60 0 -107.5 20t-80.5 55.5t-50.5 82.5t-17.5 101q0 64 23 115t61.5 86.5t89 54.5t105.5 19q39 0 74.5 -8t63.5 -23t44.5 -38t16.5 -53q0 -32 -20.5 -52t-71.5 -20q-11 0 -24 1t-27 3q7 82 -15 119t-64 37q-19 0 -38.5 -9.5t-35 -30.5t-25 -54.5t-9.5 -80.5 t12 -88.5t34.5 -73t55.5 -49.5t75 -18q24 0 48.5 7.5t46 22.5t37.5 38t24 55h29q-19 -114 -85 -166.5t-169 -52.5z"></glyph><glyph glyph-name="d" unicode="d" d="M241 -13q-42 0 -79.5 17.5t-66 51.5t-45.5 84t-17 115q0 60 18 109t49.5 84t73 54t89.5 19q32 0 62.5 -13t50.5 -35v182l-94 64v6l242 77v-736h73v-32l-221 -45v60q-24 -27 -59.5 -44.5t-75.5 -17.5zM198 256q0 -45 9 -81.5t25.5 -63t38 -41t47.5 -14.5q14 0 29 4t29 16 v369q-12 11 -26.5 15t-28.5 4q-53 0 -88 -54.5t-35 -153.5z"></glyph><glyph glyph-name="e" unicode="e" d="M295 -13q-62 0 -111 20.5t-83 55.5t-52 83t-18 104q0 62 22.5 112t59 85.5t83.5 54.5t96 19q95 0 159.5 -51t84.5 -154h-355q0 -49 13 -91.5t37 -74t58 -49.5t77 -18q25 0 50 7.5t46.5 22.5t38 38t24.5 55h29q-17 -110 -84.5 -164.5t-174.5 -54.5zM286 487 q-42 0 -69 -33.5t-34 -95.5h189q-2 70 -25 99.5t-61 29.5z"></glyph><glyph glyph-name="f" unicode="f" d="M26 32l27 2q13 1 21 2.5t12 5t5.5 11t1.5 21.5v351h-67v32q34 4 56.5 25.5t38.5 67.5q22 63 46.5 107t55.5 71t70 39.5t89 12.5h32v-139h-154q-48 0 -67 -14t-19 -42q0 -51 66 -83h194l-48 -77h-145v-351q0 -14 2.5 -21t7.5 -10.5t14 -4t22 -1.5l61 -4v-33h-322v32z"></glyph><glyph glyph-name="g" unicode="g" d="M270 170q-42 0 -76 9l-61 -73l268 -22q52 -5 85.5 -14.5t52.5 -24t26 -33.5t7 -42q0 -44 -29 -85.5t-80.5 -74t-122 -52t-152.5 -19.5q-87 0 -131.5 30.5t-44.5 72.5q0 22 13 41t35 33.5t51.5 25t61.5 16.5q-17 6 -37.5 17.5t-41 24t-38.5 24t-28 18.5l129 150 q-51 23 -80 63t-29 89q0 36 16.5 68.5t46 56.5t71 38t91.5 14q51 0 91.5 -14t70.5 -37l44 86h142l-51 -99h-121q23 -23 35 -50.5t12 -59.5q0 -36 -16.5 -68.5t-46.5 -56.5t-71.5 -38t-91.5 -14zM300 204q24 0 40.5 22.5t16.5 73.5q0 36 -7.5 70t-21.5 60.5t-34 42.5t-46 16 q-25 0 -41.5 -22.5t-16.5 -74.5q0 -35 7.5 -69t21.5 -60.5t34.5 -42.5t46.5 -16zM243 -213q37 0 74 8.5t66.5 22.5t48 33.5t18.5 40.5q0 35 -46.5 48t-131.5 13q-44 0 -74 -7.5t-48 -19t-25.5 -26t-7.5 -29.5q0 -17 6.5 -32t21.5 -26.5t39 -18.5t59 -7z"></glyph><glyph glyph-name="h" unicode="h" d="M17 32l27 2q13 1 21 2.5t12 5t5.5 11t1.5 21.5v581l-76 64v6l224 77v-401q17 55 54.5 87.5t97.5 32.5q30 0 56 -9t45 -30.5t30 -57.5t11 -90v-260q0 -14 1.5 -21.5t5.5 -11t12 -5t21 -2.5l27 -2v-32h-271v32l19 2q13 1 20.5 2.5t11 5.5t4.5 11t1 21v232q0 39 -5 63.5 t-14 39t-21.5 19.5t-27.5 5t-29 -5.5t-25 -19.5t-17.5 -39t-6.5 -64v-231q0 -14 1 -21t4.5 -11t11 -5.5t20.5 -2.5l19 -2v-32h-271v32z"></glyph><glyph glyph-name="i" unicode="i" d="M34 32l27 2q13 1 21 2.5t12 5t5.5 11t1.5 21.5v283l-76 72v6l224 94v-455q0 -14 1.5 -21.5t5.5 -11t12 -5t21 -2.5l27 -2v-32h-282v32zM81 710q0 18 7.5 35t20.5 30t30 20.5t35 7.5q19 0 36 -7.5t30 -20.5t20.5 -30t7.5 -35q0 -19 -7.5 -36t-20.5 -30t-30 -20.5t-36 -7.5 q-18 0 -35 7.5t-30 20.5t-20.5 30t-7.5 36z"></glyph><glyph glyph-name="j" unicode="j" d="M-51 -236q34 30 60.5 56t43.5 56t26 69.5t9 96.5v315l-76 72v6l224 94v-480q0 -41 -7 -71.5t-20.5 -54.5t-34.5 -44.5t-48 -39.5q-13 -9 -31 -21.5t-39 -26t-43.5 -27.5t-44.5 -27zM68 710q0 18 7.5 35t20.5 30t30 20.5t35 7.5q19 0 36 -7.5t30 -20.5t20.5 -30t7.5 -35 q0 -19 -7.5 -36t-20.5 -30t-30 -20.5t-36 -7.5q-18 0 -35 7.5t-30 20.5t-20.5 30t-7.5 36z"></glyph><glyph glyph-name="k" unicode="k" d="M17 32l21 2q26 2 36 12t10 37v572l-76 64v6l224 77v-541l177 157q21 19 17 33.5t-30 16.5l-38 2v32h239v-32l-27 -2q-16 -2 -28.5 -5.5t-24 -9.5t-22.5 -14.5t-25 -20.5l-106 -91l283 -327h-199l-216 248v-165q0 -27 10 -37t36 -12l21 -2v-32h-282v32z"></glyph><glyph glyph-name="l" unicode="l" d="M21 32l27 2q13 1 21 2.5t12 5t5.5 11t1.5 21.5v581l-76 64v6l224 77v-728q0 -14 1.5 -21.5t5.5 -11t12 -5t21 -2.5l27 -2v-32h-282v32z"></glyph><glyph glyph-name="m" unicode="m" d="M301 0h-271v32l27 2q13 1 21 2.5t12 5t5.5 11t1.5 21.5v283l-76 72v6l224 94v-128q17 55 54.5 87.5t97.5 32.5q51 0 88 -26.5t49 -96.5q18 59 58 91t99 32q30 0 56 -9t45 -30.5t30 -57.5t11 -90v-260q0 -14 1.5 -21.5t5.5 -11t12 -5t21 -2.5l27 -2v-32h-271v32l19 2 q13 1 20.5 2.5t11 5.5t4.5 11t1 21v232q0 39 -5 63.5t-14 39t-21.5 19.5t-27.5 5t-29 -5.5t-25 -19.5t-17.5 -39t-6.5 -64v-231q0 -14 1 -21t4.5 -11t11 -5.5t20.5 -2.5l19 -2v-32h-260v32l19 2q13 1 20.5 2.5t11 5.5t4.5 11t1 21v232q0 39 -5 63.5t-14 39t-21.5 19.5 t-27.5 5t-29 -5.5t-25 -19.5t-17.5 -39t-6.5 -64v-231q0 -14 1 -21t4.5 -11t11 -5.5t20.5 -2.5l19 -2v-32z"></glyph><glyph glyph-name="n" unicode="n" d="M30 32l27 2q13 1 21 2.5t12 5t5.5 11t1.5 21.5v283l-76 72v6l224 94v-128q17 55 54.5 87.5t97.5 32.5q30 0 56 -9t45 -30.5t30 -57.5t11 -90v-260q0 -14 1.5 -21.5t5.5 -11t12 -5t21 -2.5l27 -2v-32h-271v32l19 2q13 1 20.5 2.5t11 5.5t4.5 11t1 21v232q0 39 -5 63.5 t-14 39t-21.5 19.5t-27.5 5t-29 -5.5t-25 -19.5t-17.5 -39t-6.5 -64v-231q0 -14 1 -21t4.5 -11t11 -5.5t20.5 -2.5l19 -2v-32h-271v32z"></glyph><glyph glyph-name="o" unicode="o" d="M306 -13q-62 0 -113 21t-87 56.5t-56 83t-20 101.5q0 60 22 110t59.5 86t88.5 56t110 20q62 0 113 -21t87 -56.5t56 -83t20 -101.5q0 -60 -22 -110t-59.5 -86t-89 -56t-109.5 -20zM308 28q23 0 43.5 11.5t35.5 37.5t23.5 69.5t8.5 108.5q0 64 -8.5 108t-23.5 70 t-35.5 37.5t-43.5 11.5q-24 0 -44.5 -11.5t-36 -37.5t-24 -70t-8.5 -108q0 -65 8.5 -108.5t24 -69.5t36 -37.5t44.5 -11.5z"></glyph><glyph glyph-name="p" unicode="p" d="M20 -216l27 2q13 1 21 2.5t12 5t5.5 11t1.5 21.5v526l-76 60v6l224 111v-70q24 27 59.5 44.5t75.5 17.5q42 0 79.5 -17.5t66 -51.5t45.5 -84t17 -115q0 -60 -18 -109t-49.5 -84t-73 -54t-89.5 -19q-32 0 -62.5 13t-50.5 35v-209q0 -27 10 -32t36 -6l51 -3v-33h-312v32z M293 452q-14 0 -29 -4t-29 -16v-369q12 -11 26.5 -15t28.5 -4q53 0 88 54.5t35 153.5q0 45 -9 81.5t-25.5 63t-38.5 41t-47 14.5z"></glyph><glyph glyph-name="q" unicode="q" d="M241 -13q-42 0 -79.5 17.5t-66 51.5t-45.5 84t-17 115q0 60 18 109t49.5 84t73 54t89.5 19q45 0 78.5 -17t52.5 -41l123 63l7 -4v-696q0 -14 1.5 -21.5t5.5 -11t12 -5t21 -2.5l27 -2v-32h-312v33l51 3q26 1 36 6t10 32v223q-24 -27 -59.5 -44.5t-75.5 -17.5zM198 256 q0 -45 9 -81.5t25.5 -63t38 -41t47.5 -14.5q14 0 29 4t29 16v364q-12 13 -26.5 18t-28.5 5q-53 0 -88 -54t-35 -153z"></glyph><glyph glyph-name="r" unicode="r" d="M30 32l27 2q13 1 21 2.5t12 5t5.5 11t1.5 21.5v283l-76 72v6l224 94v-173q10 44 27.5 74t40 49t49.5 27t57 8h10v-149l-53 7q-39 5 -64.5 3t-40 -10.5t-20.5 -21.5t-6 -30v-239q0 -27 10 -32t36 -6l51 -3v-33h-312v32z"></glyph><glyph glyph-name="s" unicode="s" d="M209 -13q-37 0 -71.5 5.5t-74.5 18.5l-16 178h22l76 -124q10 -17 20 -25t20 -11.5t20 -3.5h21q35 0 60.5 19t25.5 54q0 30 -18 52t-59 31l-53 12q-61 14 -97.5 55.5t-36.5 107.5q0 40 18 70.5t48 51.5t68.5 32t80.5 11q32 0 68 -4.5t66 -15.5l19 -170h-22l-85 122 q-16 23 -31 27.5t-35 4.5q-35 0 -58 -19t-23 -54q0 -32 19.5 -54t57.5 -30l43 -9q81 -17 117.5 -59.5t36.5 -100.5q0 -38 -17 -69.5t-47.5 -54.5t-72 -35.5t-90.5 -12.5z"></glyph><glyph glyph-name="t" unicode="t" d="M231 -7q-30 0 -54.5 5t-42 18.5t-27 38t-9.5 64.5v306h-101v6l242 200h7v-129h200l-48 -77h-152v-272q0 -56 18 -76t52 -20q23 0 43 8.5t38 20.5l16 -26q-15 -12 -35 -24t-43.5 -21.5t-50 -15.5t-53.5 -6z"></glyph><glyph glyph-name="u" unicode="u" d="M224 -13q-30 0 -56 9t-45 30.5t-30 57.5t-11 90v271l-65 25v32h213v-300q0 -39 5 -63.5t14 -39t21.5 -19.5t27.5 -5t29 5.5t25 19.5t17.5 39t6.5 64v242l-65 25v32h213v-436h73v-32l-221 -45v118q-17 -55 -54.5 -87.5t-97.5 -32.5z"></glyph><glyph glyph-name="v" unicode="v" d="M66 413q-12 28 -22.5 40t-36.5 15l-16 2v32h286v-32l-21 -2q-52 -4 -32 -49l108 -242l92 214q17 41 8 57t-35 19l-28 3v32h199v-32l-20 -2q-27 -3 -40.5 -15.5t-27.5 -44.5l-186 -420h-40z"></glyph><glyph glyph-name="w" unicode="w" d="M66 413q-12 28 -22.5 40t-36.5 15l-16 2v32h286v-32l-21 -2q-52 -4 -32 -49l108 -242l75 170l-68 155h250v-32l-21 -2q-52 -4 -32 -49l108 -241l92 213q17 41 8 57t-35 19l-28 3v32h199v-32l-20 -2q-27 -3 -40.5 -15.5t-27.5 -44.5l-186 -420h-40l-136 307l-136 -307h-40 z"></glyph><glyph glyph-name="x" unicode="x" d="M-6 32l20 2q27 3 56.5 22.5t71.5 61.5l107 109l-140 186q-18 24 -32.5 38t-40.5 17l-16 2v32h298v-32l-21 -2q-26 -2 -29.5 -15.5t11.5 -33.5l69 -92l63 64q32 32 30.5 52.5t-27.5 23.5l-28 3v32h226v-32l-20 -2q-27 -3 -56.5 -22t-68.5 -58l-93 -95l153 -204 q18 -24 32.5 -38t40.5 -17l16 -2v-32h-298v32l21 2q26 2 29.5 15.5t-11.5 33.5l-82 109l-80 -81q-32 -32 -30.5 -52.5t27.5 -23.5l28 -3v-32h-226v32z"></glyph><glyph glyph-name="y" unicode="y" d="M248 -5l-179 418q-12 28 -22.5 40t-36.5 15l-16 2v32h286v-32l-21 -2q-51 -4 -32 -49l102 -247l99 219q18 41 8.5 57t-35.5 19l-28 3v32h198v-32l-20 -2q-27 -3 -40.5 -15.5t-27.5 -44.5l-248 -542q-29 -63 -56.5 -92t-69.5 -29q-33 0 -52 22t-19 53q0 21 12 40t34 31.5 t54 18.5t72 2z"></glyph><glyph glyph-name="z" unicode="z" d="M323 462h-110q-22 0 -34.5 -5t-23.5 -21l-101 -152h-22l41 218h443l-301 -462h101q23 0 35.5 5.5t28.5 24.5l128 155h22l-67 -225h-442z"></glyph><glyph glyph-name="braceleft" unicode="{" d="M336 -238q-44 5 -89.5 22.5t-80 48.5t-52.5 76.5t-7 106.5l16 93q8 46 1.5 76t-23.5 48.5t-43.5 27.5t-57.5 14v35q31 5 57.5 14t43.5 27.5t23.5 48t-1.5 76.5l-16 93q-11 61 7 106.5t52.5 76.5t80 48.5t89.5 22.5l6 -30q-71 -14 -96.5 -61.5t-11.5 -116.5l14 -71 q13 -67 3 -112.5t-35.5 -74.5t-62 -43.5t-76.5 -19.5v-3q40 -5 76.5 -19.5t62 -43.5t35.5 -74.5t-3 -112.5l-14 -71q-14 -69 11.5 -116.5t96.5 -61.5z"></glyph><glyph glyph-name="bar" unicode="|" d="M92 826h91v-1064h-91v1064z"></glyph><glyph glyph-name="braceright" unicode="}" d="M29 823q44 -5 89.5 -22.5t80 -48.5t52.5 -76.5t7 -106.5l-16 -93q-8 -46 -1.5 -76t23.5 -48.5t43.5 -27.5t57.5 -14v-35q-31 -5 -57.5 -14t-43.5 -27.5t-23.5 -48t1.5 -76.5l16 -93q11 -61 -7 -106.5t-52.5 -76.5t-80 -48.5t-89.5 -22.5l-6 30q71 14 96.5 61.5 t11.5 116.5l-14 71q-13 67 -3 112.5t35.5 74.5t62 43.5t76.5 19.5v3q-40 5 -76.5 19.5t-62 43.5t-35.5 74.5t3 112.5l14 71q14 69 -11.5 116.5t-96.5 61.5z"></glyph><glyph glyph-name="asciitilde" unicode="~" d="M197 332q39 0 72.5 -13.5t63.5 -29.5t58 -29.5t56 -13.5q36 0 59 17t25 63h65q-5 -66 -46 -103.5t-101 -37.5q-36 0 -67.5 13.5t-61.5 29.5t-59.5 29.5t-61.5 13.5q-36 0 -59 -17t-25 -63h-65q5 66 46 103.5t101 37.5z"></glyph><glyph glyph-name="uni00A0" unicode=" "></glyph><glyph glyph-name="exclamdown" unicode="¡" d="M159 267q3 -66 9.5 -112t14 -82t15.5 -65.5t14.5 -62.5t10.5 -73.5t4 -97.5q0 -11 -13.5 -19t-33.5 -11.5t-43 -4t-43 3.5t-33.5 11.5t-13.5 19.5q0 56 4 96.5t10.5 73.5t14.5 63t15.5 65.5t14 82t9.5 112.5h44zM130 521q42 0 70.5 -28.5t28.5 -70.5q0 -20 -7.5 -37 t-21 -30t-31.5 -20.5t-39 -7.5q-20 0 -37 7.5t-30 20.5t-20.5 30t-7.5 37q0 21 7.5 39t20.5 31.5t30 21t37 7.5z"></glyph><glyph glyph-name="cent" unicode="¢" d="M283 -12q-58 3 -103 24.5t-76.5 57.5t-48 84t-16.5 104q0 54 19.5 99.5t53 79.5t77.5 55t94 27v101h46v-99q37 -1 71 -9.5t60 -24t41.5 -37.5t15.5 -51q0 -38 -27 -57t-75 -14l-33 3q2 63 -12.5 97.5t-40.5 46.5v-403q18 -5 36 -5q26 0 50.5 8t44.5 25.5t34.5 45.5 t20.5 69h32q-10 -109 -67 -164.5t-151 -62.5v-108h-46v108zM201 318q0 -76 21 -134.5t61 -89.5v387q-35 -5 -58.5 -43.5t-23.5 -119.5z"></glyph><glyph glyph-name="sterling" unicode="£" d="M29 4l160 142q34 30 49 58t15 56q0 24 -11 54h-161v54h132q-6 9 -13 18.5t-15 18.5l-41 49q-20 24 -31.5 50.5t-11.5 52.5q0 35 24 71.5t82 77.5t110 57t108 16q27 0 50 -5.5t40 -16.5t26.5 -27t9.5 -37q0 -13 -7.5 -27.5t-21.5 -26t-35.5 -18.5t-49.5 -4q-14 51 -45 75 t-68 24q-36 0 -64 -19q-20 -13 -29.5 -24.5t-9.5 -25.5q0 -17 14 -39t40 -54l38 -45q26 -32 45.5 -65t19.5 -70v-6h162v-54h-168q-8 -30 -30.5 -63t-70.5 -73l-62 -52h362l-31 -126h-511v4z"></glyph><glyph glyph-name="yen" unicode="¥" d="M154 221h185v59h-185v54h185v8l-220 335q-8 12 -14 20t-13 13t-15.5 7.5t-21.5 4.5l-33 4v32h343v-32l-43 -4q-26 -2 -38 -11.5t4 -33.5l177 -276l182 276q16 25 4 34t-38 11l-43 4v32h234v-32l-33 -4q-26 -3 -37 -11.5t-27 -33.5l-220 -336v-7h185v-54h-185v-59h185v-54 h-185v-84q0 -26 13 -36.5t39 -12.5l35 -2v-32h-322v32l35 2q26 2 39 12.5t13 36.5v84h-185v54z"></glyph><glyph glyph-name="brokenbar" unicode="¦" d="M92 826h91v-421h-91v421zM92 183h91v-421h-91v421z"></glyph><glyph glyph-name="section" unicode="§" d="M186 243q-37 37 -63.5 69.5t-43 64t-24 64.5t-7.5 71q0 51 24 99t66.5 85.5t101.5 60t129 22.5q45 0 84.5 -10t68.5 -27.5t45.5 -41.5t16.5 -53q0 -45 -32 -69.5t-104 -16.5q-5 79 -37 125.5t-98 46.5q-47 0 -70.5 -25t-23.5 -63q0 -48 36.5 -102t109.5 -127l66 -66 q37 -37 67.5 -70.5t52 -67t33.5 -68.5t12 -75q0 -54 -26 -102t-69 -84.5t-97.5 -57.5t-112.5 -21q-53 0 -99.5 11t-81 31.5t-54.5 48t-20 60.5q0 42 36 67t105 17q6 -41 14.5 -77t23.5 -62t38.5 -41t59.5 -15q49 0 75 25.5t26 68.5q0 28 -11.5 55.5t-33 56t-51.5 60 t-66 67.5zM433 -127q52 38 71 79t19 77q0 64 -38 125t-112 135l-70 70q-40 40 -67 73.5t-44 63.5t-24.5 56.5t-7.5 51.5q0 20 5 48t28 53q-25 -19 -40.5 -38t-24.5 -37.5t-12.5 -38t-3.5 -38.5q0 -31 7.5 -60.5t24 -60t42.5 -63.5t63 -70l70 -70q80 -80 118 -138.5 t38 -111.5q0 -22 -9.5 -53t-32.5 -53z"></glyph><glyph glyph-name="dieresis" unicode="¨" d="M113 636q-29 0 -48.5 20t-19.5 49q0 30 19.5 49.5t48.5 19.5t48.5 -19.5t19.5 -49.5q0 -29 -19.5 -49t-48.5 -20zM-113 636q-29 0 -48.5 20t-19.5 49q0 30 19.5 49.5t48.5 19.5t48.5 -19.5t19.5 -49.5q0 -29 -19.5 -49t-48.5 -20z"></glyph><glyph glyph-name="copyright" unicode="©" d="M436 -13q-83 0 -155.5 29t-126.5 81.5t-85.5 125t-31.5 160.5t31.5 160.5t85.5 125t126.5 81.5t155.5 29t155.5 -29t126.5 -81.5t85.5 -125t31.5 -160.5t-31.5 -160.5t-85.5 -125t-126.5 -81.5t-155.5 -29zM436 35q73 0 135.5 24.5t108.5 70t72 110t26 143.5t-26 143.5 t-72 110t-108.5 70t-135.5 24.5t-135.5 -24.5t-108.5 -70t-72 -110t-26 -143.5t26 -143.5t72 -110t108.5 -70t135.5 -24.5zM450 162q-56 0 -102 16.5t-79.5 46.5t-52 71.5t-18.5 91.5t19 91.5t53 71t81 46t103 16.5q35 0 69.5 -5t60.5 -12l26 -160h-7l-90 117 q-11 14 -20 20.5t-16 8.5q-5 1 -13 1.5t-16 0.5q-23 0 -46.5 -8.5t-43.5 -28.5t-32.5 -53.5t-12.5 -84.5q0 -42 8.5 -81t26 -69t45 -48.5t66.5 -18.5q17 0 29 3q8 2 16.5 7.5t19.5 20.5l89 115h7l-30 -159q-26 -7 -65 -12t-75 -5z"></glyph><glyph glyph-name="ordfeminine" unicode="ª" d="M168 359q-28 0 -50.5 9.5t-39 25.5t-25.5 36.5t-9 42.5q0 28 13.5 47t33.5 31.5t42.5 21.5t40.5 18q31 15 49.5 26.5t28 23.5t12.5 26t3 34q0 27 -12 43.5t-34 16.5q-41 0 -53.5 -35t4.5 -95q-24 -3 -45 -3q-48 0 -65.5 12.5t-17.5 32.5q0 22 27 42t65 37 q36 16 66.5 28.5t70.5 12.5q29 0 51 -6t36.5 -21t22 -41t7.5 -67l-3 -231h53v-28l-162 -37l-10 67q-16 -39 -42 -54.5t-58 -15.5zM223 412q13 0 28 18.5t15 63.5v133q-10 -11 -16.5 -16.5t-18.5 -15.5q-29 -23 -40 -49.5t-11 -55.5q0 -13 2.5 -26.5t7.5 -25t13.5 -19 t19.5 -7.5z"></glyph><glyph glyph-name="guillemotleft" unicode="«" d="M285 27l-13 -9l-238 233l238 233l13 -9l-116 -225zM495 27l-13 -9l-238 233l238 233l13 -9l-116 -225z"></glyph><glyph glyph-name="uni00AD" unicode="­" d="M56 303h294v-81h-294v81z"></glyph><glyph glyph-name="registered" unicode="®" d="M436 -13q-83 0 -155.5 29t-126.5 81.5t-85.5 125t-31.5 160.5t31.5 160.5t85.5 125t126.5 81.5t155.5 29t155.5 -29t126.5 -81.5t85.5 -125t31.5 -160.5t-31.5 -160.5t-85.5 -125t-126.5 -81.5t-155.5 -29zM436 35q73 0 135.5 24.5t108.5 70t72 110t26 143.5t-26 143.5 t-72 110t-108.5 70t-135.5 24.5t-135.5 -24.5t-108.5 -70t-72 -110t-26 -143.5t26 -143.5t72 -110t108.5 -70t135.5 -24.5zM222 203l17 2q16 2 24.5 7.5t8.5 23.5v318q0 18 -8.5 23.5t-24.5 7.5l-17 2v23h186q89 0 139 -24t50 -78q0 -14 -4.5 -29.5t-16 -29.5t-30.5 -26 t-48 -19l177 -224h-127l-158 209h-14v-153q0 -18 8.5 -23.5t24.5 -7.5l17 -2v-23h-204v23zM404 417q45 0 61.5 24t16.5 59t-16.5 58.5t-61.5 23.5h-28v-165h28z"></glyph><glyph glyph-name="macron" unicode="¯" d="M-157 737h314v-68h-314v68z"></glyph><glyph glyph-name="degree" unicode="°" d="M204 441q-36 0 -67 13t-54 36t-36 54t-13 66t13 66t36 54t54 36t67 13t67 -13t54 -36t36 -54t13 -66t-13 -66t-36 -54t-54 -36t-67 -13zM204 496q22 0 42 8t35 23t23.5 36t8.5 47t-8.5 47t-23.5 36t-35 23t-42 8t-42 -8t-35 -23t-23.5 -36t-8.5 -47t8.5 -47t23.5 -36 t35 -23t42 -8z"></glyph><glyph glyph-name="plusminus" unicode="±" d="M283 283h-209v75h209v158h79v-158h209v-75h-209v-163h-79v163zM74 75h497v-75h-497v75z"></glyph><glyph glyph-name="uni00B2" unicode="²" d="M5 403q51 54 86.5 98.5t58 82.5t32.5 69.5t10 59.5q0 26 -13 45.5t-45 19.5q-28 0 -51.5 -20.5t-29.5 -68.5h-23q1 37 13.5 63.5t32 44t45.5 26t54 8.5q32 0 55 -8.5t38 -22.5t22.5 -32t7.5 -36q0 -25 -12.5 -49.5t-32.5 -48.5t-45 -48t-50 -47l-53 -50h88q42 0 60 5 t27 28l3 8h23l-29 -129h-272v2z"></glyph><glyph glyph-name="uni00B3" unicode="³" d="M111 393q-18 0 -35.5 4t-31 12.5t-21.5 21t-8 30.5q0 11 5 21.5t15 18t24.5 10.5t32.5 0q8 -40 22 -62t43 -22q10 0 21.5 3.5t21 12t15.5 22.5t6 34q0 25 -8 44t-21 32.5t-30 20.5t-34 7q-25 0 -40 -8l-8 25l16 6q46 18 73.5 46.5t27.5 57.5q0 23 -15 35.5t-38 12.5 q-11 0 -23 -3t-22.5 -11t-19 -22.5t-11.5 -37.5h-23q12 127 144 127q19 0 37.5 -4.5t33 -13t23.5 -21.5t9 -30q0 -26 -20 -45t-75 -30v-2q57 -16 86 -51.5t29 -73.5q0 -37 -17.5 -67.5t-46 -52.5t-64.5 -34.5t-73 -12.5z"></glyph><glyph glyph-name="acute" unicode="´" d="M-19 788h148v-11l-230 -168h-28z"></glyph><glyph glyph-name="paragraph" unicode="¶" d="M279 287q-5 -1 -9.5 -1h-9.5q-54 0 -97 16t-73.5 45.5t-46.5 70t-16 90.5q0 53 21.5 98.5t63.5 79.5t104 53t142 19h188v-36l-35 -4q-26 -3 -40 -11.5t-14 -37.5v-746l-101 -77v457q-8 -2 -15 -4t-15 -4v-471l-47 -37v500z"></glyph><glyph glyph-name="periodcentered" unicode="·" d="M146 165q-20 0 -37 7.5t-30 21t-20.5 31.5t-7.5 39q0 19 7.5 36.5t20.5 30.5t30 20.5t37 7.5q21 0 39 -7.5t31.5 -20.5t21 -30.5t7.5 -36.5q0 -42 -28.5 -70.5t-70.5 -28.5z"></glyph><glyph glyph-name="cedilla" unicode="¸" d="M-33 -265q-15 0 -31 3t-28.5 9.5t-20.5 16t-8 23.5q0 17 14 28.5t40 6.5q0 -26 17 -40.5t40 -14.5q18 0 29.5 8.5t11.5 21.5q0 19 -33.5 39t-82.5 42l119 127h44l-75 -80q42 -22 61.5 -42.5t19.5 -54.5q0 -17 -7.5 -34t-22.5 -30t-37 -21t-50 -8z"></glyph><glyph glyph-name="uni00B9" unicode="¹" d="M78 750l-61 -23v32l161 67v-368q0 -16 5.5 -22t21.5 -8l22 -2v-25h-197v26l23 2q16 2 20.5 7.5t4.5 21.5v292z"></glyph><glyph glyph-name="ordmasculine" unicode="º" d="M246 359q-48 0 -87.5 17t-68 46t-44 67.5t-15.5 81.5q0 48 17.5 88.5t47.5 70t69.5 45.5t84.5 16q48 0 87.5 -17t68 -46t44 -67t15.5 -81q0 -48 -17.5 -89t-47.5 -70t-69.5 -45.5t-84.5 -16.5zM248 394q18 0 31.5 9t22.5 30t14 56t5 87t-5 87t-14 56t-22.5 30t-31.5 9 t-32 -9t-23.5 -30t-14.5 -56t-5 -87t5 -87t14.5 -56t23.5 -30t32 -9z"></glyph><glyph glyph-name="guillemotright" unicode="»" d="M172 250l-116 225l13 9l238 -233l-238 -233l-13 9zM382 250l-116 225l13 9l238 -233l-238 -233l-13 9z"></glyph><glyph glyph-name="onequarter" unicode="¼" d="M79 690l-61 -23v32l161 67v-368q0 -16 5.5 -22t21.5 -8l22 -2v-25h-197v26l23 2q16 2 20.5 7.5t4.5 21.5v292zM588 758h92l-566 -758h-92zM621 100h-194l204 316h90v-244h69v-72h-69v-100h-100v100zM621 172v173l-110 -173h110z"></glyph><glyph glyph-name="onehalf" unicode="½" d="M79 690l-61 -23v32l161 67v-368q0 -16 5.5 -22t21.5 -8l22 -2v-25h-197v26l23 2q16 2 20.5 7.5t4.5 21.5v292zM588 758h92l-566 -758h-92zM458 2q51 54 86.5 98.5t58 82.5t32.5 69.5t10 59.5q0 26 -13 45.5t-45 19.5q-28 0 -51.5 -20.5t-29.5 -68.5h-23q1 37 13.5 63.5 t32 44t45.5 26t54 8.5q32 0 55 -8.5t38 -22.5t22.5 -32t7.5 -36q0 -25 -12.5 -49.5t-32.5 -48.5t-45 -48t-50 -47l-53 -50h88q42 0 60 5t27 28l3 8h23l-29 -129h-272v2z"></glyph><glyph glyph-name="threequarters" unicode="¾" d="M111 333q-18 0 -35.5 4t-31 12.5t-21.5 21t-8 30.5q0 11 5 21.5t15 18t24.5 10.5t32.5 0q8 -40 22 -62t43 -22q10 0 21.5 3.5t21 12t15.5 22.5t6 34q0 25 -8 44t-21 32.5t-30 20.5t-34 7q-25 0 -40 -8l-8 25l16 6q46 18 73.5 46.5t27.5 57.5q0 23 -15 35.5t-38 12.5 q-11 0 -23 -3t-22.5 -11t-19 -22.5t-11.5 -37.5h-23q12 127 144 127q19 0 37.5 -4.5t33 -13t23.5 -21.5t9 -30q0 -26 -20 -45t-75 -30v-2q57 -16 86 -51.5t29 -73.5q0 -37 -17.5 -67.5t-46 -52.5t-64.5 -34.5t-73 -12.5zM680 758h92l-566 -758h-92zM713 100h-194l204 316h90 v-244h69v-72h-69v-100h-100v100zM713 172v173l-110 -173h110z"></glyph><glyph glyph-name="questiondown" unicode="¿" d="M293 -215q25 0 47 6t37.5 20.5t24.5 39t9 61.5q22 1 46 -3.5t43.5 -14t32 -25.5t12.5 -38t-16 -39t-43 -29t-63 -18t-77 -6q-71 0 -128 18.5t-98 52.5t-63 83t-22 109q0 65 43 108.5t142 56.5l109 14q22 3 28 8t7 25l2 61h32l26 -157q5 -30 1.5 -48t-15 -27.5t-31 -14 t-46.5 -7.5l-123 -15q-33 -4 -53 -11t-30.5 -17t-14 -22t-3.5 -27q0 -30 16.5 -56.5t43 -46t59.5 -30.5t65 -11zM387 521q19 0 36.5 -7.5t30.5 -21t20.5 -31.5t7.5 -39q0 -20 -7.5 -37t-20.5 -30t-30.5 -20.5t-36.5 -7.5q-21 0 -39 7.5t-31.5 20.5t-21 30t-7.5 37 q0 42 28.5 70.5t70.5 28.5z"></glyph><glyph glyph-name="Agrave" unicode="À" d="M685 85q11 -26 24.5 -34t39.5 -11l33 -4v-36h-344v36l43 4q26 2 35.5 10.5t-1.5 34.5l-64 162h-257l-65 -162q-11 -26 -1.5 -34.5t35.5 -10.5l43 -4v-36h-231v36l33 4q26 3 39.5 11t24.5 34l297 723h20zM218 306h209l-104 262zM381 843l-251 126v3h183l99 -129h-31z"></glyph><glyph glyph-name="Aacute" unicode="Á" d="M685 85q11 -26 24.5 -34t39.5 -11l33 -4v-36h-344v36l43 4q26 2 35.5 10.5t-1.5 34.5l-64 162h-257l-65 -162q-11 -26 -1.5 -34.5t35.5 -10.5l43 -4v-36h-231v36l33 4q26 3 39.5 11t24.5 34l297 723h20zM218 306h209l-104 262zM460 972h183v-3l-251 -126h-31z"></glyph><glyph glyph-name="Acircumflex" unicode="Â" d="M685 85q11 -26 24.5 -34t39.5 -11l33 -4v-36h-344v36l43 4q26 2 35.5 10.5t-1.5 34.5l-64 162h-257l-65 -162q-11 -26 -1.5 -34.5t35.5 -10.5l43 -4v-36h-231v36l33 4q26 3 39.5 11t24.5 34l297 723h20zM218 306h209l-104 262zM371 992h16l165 -159h-33l-140 64l-140 -64 h-33z"></glyph><glyph glyph-name="Atilde" unicode="Ã" d="M685 85q11 -26 24.5 -34t39.5 -11l33 -4v-36h-344v36l43 4q26 2 35.5 10.5t-1.5 34.5l-64 162h-257l-65 -162q-11 -26 -1.5 -34.5t35.5 -10.5l43 -4v-36h-231v36l33 4q26 3 39.5 11t24.5 34l297 723h20zM218 306h209l-104 262zM452 829q-25 0 -45.5 9t-38.5 20t-35.5 20 t-37.5 9q-24 0 -39 -14t-17 -40h-21q0 27 5.5 53.5t17 47t29.5 33.5t44 13q21 0 41 -9t38.5 -20t36.5 -20t35 -9q23 0 37.5 12t16.5 38h21q0 -41 -8 -68t-20 -44t-28 -24t-32 -7z"></glyph><glyph glyph-name="Adieresis" unicode="Ä" d="M685 85q11 -26 24.5 -34t39.5 -11l33 -4v-36h-344v36l43 4q26 2 35.5 10.5t-1.5 34.5l-64 162h-257l-65 -162q-11 -26 -1.5 -34.5t35.5 -10.5l43 -4v-36h-231v36l33 4q26 3 39.5 11t24.5 34l297 723h20zM218 306h209l-104 262zM266 837q-30 0 -50 20.5t-20 50.5 q0 31 20 51t50 20q29 0 49.5 -20t20.5 -51q0 -30 -20.5 -50.5t-49.5 -20.5zM492 837q-30 0 -50 20.5t-20 50.5q0 31 20 51t50 20q29 0 49.5 -20t20.5 -51q0 -30 -20.5 -50.5t-49.5 -20.5z"></glyph><glyph glyph-name="Aring" unicode="Å" d="M685 85q11 -26 24.5 -34t39.5 -11l33 -4v-36h-344v36l43 4q26 2 35.5 10.5t-1.5 34.5l-64 162h-257l-65 -162q-11 -26 -1.5 -34.5t35.5 -10.5l43 -4v-36h-231v36l33 4q26 3 39.5 11t24.5 34l297 723h20zM218 306h209l-104 262zM379 837q-26 0 -48.5 9.5t-39 25.5 t-26.5 38t-10 47t10 47t26.5 38.5t39 26t48.5 9.5q27 0 50 -9.5t40 -26t27 -38.5t10 -47t-10 -47t-27 -38t-40 -25.5t-50 -9.5zM379 890q32 0 49 18t17 49t-17 48.5t-49 17.5q-30 0 -47.5 -17.5t-17.5 -48.5t17.5 -49t47.5 -18z"></glyph><glyph glyph-name="AE" unicode="Æ" d="M453 36l35 4q26 3 40 11.5t14 37.5v158h-286l-110 -162q-16 -23 -15 -33t27 -12l43 -4v-36h-233v36l33 4q26 3 48.5 12.5t37.5 32.5l455 673h507l37 -271h-12l-153 207q-9 12 -15 15t-22 3h-182v-293h116q11 0 17 11l58 131h12v-336h-12l-58 131q-6 11 -17 11h-116v-321 h227q14 0 18.5 2.5t12.5 11.5l194 211h12l-75 -271h-638v36zM542 306v365l-247 -365h247z"></glyph><glyph glyph-name="Ccedilla" unicode="Ç" d="M477 -13q-99 0 -180.5 28.5t-139 80.5t-89.5 125t-32 162t32 162t91 125t141 80.5t183 28.5q62 0 124 -9.5t107 -25.5l46 -262h-22l-132 192q-17 25 -32 35t-27 15q-11 4 -30.5 6.5t-41.5 2.5q-48 0 -95 -16t-84 -53t-60 -97.5t-23 -150.5q0 -76 16 -145.5t50 -122 t86.5 -84t125.5 -31.5q22 0 41.5 2.5t30.5 6.5q12 5 27 15t32 35l132 192h22l-53 -262q-22 -8 -51.5 -14.5t-62 -11t-66.5 -7t-66 -2.5zM388 -270q-15 0 -31 3t-28.5 9.5t-20.5 16t-8 23.5q0 17 14 28.5t40 6.5q0 -26 17 -40.5t40 -14.5q18 0 29.5 8.5t11.5 21.5 q0 19 -33.5 39t-82.5 42l119 127h44l-75 -80q42 -22 61.5 -42.5t19.5 -54.5q0 -17 -7.5 -34t-22.5 -30t-37 -21t-50 -8z"></glyph><glyph glyph-name="Egrave" unicode="È" d="M42 36l45 4q26 2 35 11t9 38v580q0 29 -9 38t-35 11l-45 4v36h596l37 -271h-22l-143 207q-8 12 -14.5 15t-22.5 3h-182v-293h116q13 0 17 11l48 131h22v-336h-22l-48 131q-4 11 -17 11h-116v-321h227q14 0 18.5 2.5t12.5 11.5l184 211h22l-75 -271h-638v36zM396 843 l-251 126v3h183l99 -129h-31z"></glyph><glyph glyph-name="Eacute" unicode="É" d="M42 36l45 4q26 2 35 11t9 38v580q0 29 -9 38t-35 11l-45 4v36h596l37 -271h-22l-143 207q-8 12 -14.5 15t-22.5 3h-182v-293h116q13 0 17 11l48 131h22v-336h-22l-48 131q-4 11 -17 11h-116v-321h227q14 0 18.5 2.5t12.5 11.5l184 211h22l-75 -271h-638v36zM475 972h183 v-3l-251 -126h-31z"></glyph><glyph glyph-name="Ecircumflex" unicode="Ê" d="M42 36l45 4q26 2 35 11t9 38v580q0 29 -9 38t-35 11l-45 4v36h596l37 -271h-22l-143 207q-8 12 -14.5 15t-22.5 3h-182v-293h116q13 0 17 11l48 131h22v-336h-22l-48 131q-4 11 -17 11h-116v-321h227q14 0 18.5 2.5t12.5 11.5l184 211h22l-75 -271h-638v36zM386 992h16 l165 -159h-33l-140 64l-140 -64h-33z"></glyph><glyph glyph-name="Edieresis" unicode="Ë" d="M42 36l45 4q26 2 35 11t9 38v580q0 29 -9 38t-35 11l-45 4v36h596l37 -271h-22l-143 207q-8 12 -14.5 15t-22.5 3h-182v-293h116q13 0 17 11l48 131h22v-336h-22l-48 131q-4 11 -17 11h-116v-321h227q14 0 18.5 2.5t12.5 11.5l184 211h22l-75 -271h-638v36zM281 837 q-30 0 -50 20.5t-20 50.5q0 31 20 51t50 20q29 0 49.5 -20t20.5 -51q0 -30 -20.5 -50.5t-49.5 -20.5zM507 837q-30 0 -50 20.5t-20 50.5q0 31 20 51t50 20q29 0 49.5 -20t20.5 -51q0 -30 -20.5 -50.5t-49.5 -20.5z"></glyph><glyph glyph-name="Igrave" unicode="Ì" d="M42 36l45 4q26 2 35 11t9 38v580q0 29 -9 38t-35 11l-45 4v36h338v-36l-45 -4q-26 -2 -35 -11t-9 -38v-580q0 -29 9 -38t35 -11l45 -4v-36h-338v36zM213 843l-251 126v3h183l99 -129h-31z"></glyph><glyph glyph-name="Iacute" unicode="Í" d="M42 36l45 4q26 2 35 11t9 38v580q0 29 -9 38t-35 11l-45 4v36h338v-36l-45 -4q-26 -2 -35 -11t-9 -38v-580q0 -29 9 -38t35 -11l45 -4v-36h-338v36zM292 972h183v-3l-251 -126h-31z"></glyph><glyph glyph-name="Icircumflex" unicode="Î" d="M42 36l45 4q26 2 35 11t9 38v580q0 29 -9 38t-35 11l-45 4v36h338v-36l-45 -4q-26 -2 -35 -11t-9 -38v-580q0 -29 9 -38t35 -11l45 -4v-36h-338v36zM203 992h16l165 -159h-33l-140 64l-140 -64h-33z"></glyph><glyph glyph-name="Idieresis" unicode="Ï" d="M42 36l45 4q26 2 35 11t9 38v580q0 29 -9 38t-35 11l-45 4v36h338v-36l-45 -4q-26 -2 -35 -11t-9 -38v-580q0 -29 9 -38t35 -11l45 -4v-36h-338v36zM98 837q-30 0 -50 20.5t-20 50.5q0 31 20 51t50 20q29 0 49.5 -20t20.5 -51q0 -30 -20.5 -50.5t-49.5 -20.5zM324 837 q-30 0 -50 20.5t-20 50.5q0 31 20 51t50 20q29 0 49.5 -20t20.5 -51q0 -30 -20.5 -50.5t-49.5 -20.5z"></glyph><glyph glyph-name="Eth" unicode="Ð" d="M56 36l45 4q26 2 35 11t9 38v580q0 29 -9 38t-35 11l-45 4v36h301q100 0 185 -24.5t147 -72t96.5 -117t34.5 -159.5t-34.5 -161.5t-95.5 -121t-144.5 -76t-180.5 -26.5h-309v36zM357 44q63 0 115 16.5t89.5 53t58.5 95t21 142.5q0 190 -72 276.5t-218 86.5h-46v-670h52z M56 427h399v-59h-399v59z"></glyph><glyph glyph-name="Ntilde" unicode="Ñ" d="M46 36l45 4q26 2 35 11t9 38v558l-101 109v2h210l456 -475v386q0 29 -9 38t-35 11l-45 4v36h234v-36l-45 -4q-26 -2 -35 -11t-9 -38v-686h-4l-561 604v-498q0 -29 9 -38t35 -11l45 -4v-36h-234v36zM535 829q-25 0 -45.5 9t-38.5 20t-35.5 20t-37.5 9q-24 0 -39 -14 t-17 -40h-21q0 27 5.5 53.5t17 47t29.5 33.5t44 13q21 0 41 -9t38.5 -20t36.5 -20t35 -9q23 0 37.5 12t16.5 38h21q0 -41 -8 -68t-20 -44t-28 -24t-32 -7z"></glyph><glyph glyph-name="Ograve" unicode="Ò" d="M446 -13q-80 0 -154 26.5t-131 77.5t-91 124.5t-34 167.5t34 167.5t91 124.5t131 77.5t154 26.5t154 -26.5t131 -77.5t91 -124.5t34 -167.5t-34 -167.5t-91 -124.5t-131 -77.5t-154 -26.5zM446 35q108 0 170 88.5t62 259.5t-62 259.5t-170 88.5t-170 -88.5t-62 -259.5 t62 -259.5t170 -88.5zM448 843l-251 126v3h183l99 -129h-31z"></glyph><glyph glyph-name="Oacute" unicode="Ó" d="M446 -13q-80 0 -154 26.5t-131 77.5t-91 124.5t-34 167.5t34 167.5t91 124.5t131 77.5t154 26.5t154 -26.5t131 -77.5t91 -124.5t34 -167.5t-34 -167.5t-91 -124.5t-131 -77.5t-154 -26.5zM446 35q108 0 170 88.5t62 259.5t-62 259.5t-170 88.5t-170 -88.5t-62 -259.5 t62 -259.5t170 -88.5zM527 972h183v-3l-251 -126h-31z"></glyph><glyph glyph-name="Ocircumflex" unicode="Ô" d="M446 -13q-80 0 -154 26.5t-131 77.5t-91 124.5t-34 167.5t34 167.5t91 124.5t131 77.5t154 26.5t154 -26.5t131 -77.5t91 -124.5t34 -167.5t-34 -167.5t-91 -124.5t-131 -77.5t-154 -26.5zM446 35q108 0 170 88.5t62 259.5t-62 259.5t-170 88.5t-170 -88.5t-62 -259.5 t62 -259.5t170 -88.5zM438 992h16l165 -159h-33l-140 64l-140 -64h-33z"></glyph><glyph glyph-name="Otilde" unicode="Õ" d="M446 -13q-80 0 -154 26.5t-131 77.5t-91 124.5t-34 167.5t34 167.5t91 124.5t131 77.5t154 26.5t154 -26.5t131 -77.5t91 -124.5t34 -167.5t-34 -167.5t-91 -124.5t-131 -77.5t-154 -26.5zM446 35q108 0 170 88.5t62 259.5t-62 259.5t-170 88.5t-170 -88.5t-62 -259.5 t62 -259.5t170 -88.5zM519 829q-25 0 -45.5 9t-38.5 20t-35.5 20t-37.5 9q-24 0 -39 -14t-17 -40h-21q0 27 5.5 53.5t17 47t29.5 33.5t44 13q21 0 41 -9t38.5 -20t36.5 -20t35 -9q23 0 37.5 12t16.5 38h21q0 -41 -8 -68t-20 -44t-28 -24t-32 -7z"></glyph><glyph glyph-name="Odieresis" unicode="Ö" d="M446 -13q-80 0 -154 26.5t-131 77.5t-91 124.5t-34 167.5t34 167.5t91 124.5t131 77.5t154 26.5t154 -26.5t131 -77.5t91 -124.5t34 -167.5t-34 -167.5t-91 -124.5t-131 -77.5t-154 -26.5zM446 35q108 0 170 88.5t62 259.5t-62 259.5t-170 88.5t-170 -88.5t-62 -259.5 t62 -259.5t170 -88.5zM333 837q-30 0 -50 20.5t-20 50.5q0 31 20 51t50 20q29 0 49.5 -20t20.5 -51q0 -30 -20.5 -50.5t-49.5 -20.5zM559 837q-30 0 -50 20.5t-20 50.5q0 31 20 51t50 20q29 0 49.5 -20t20.5 -51q0 -30 -20.5 -50.5t-49.5 -20.5z"></glyph><glyph glyph-name="multiply" unicode="×" d="M85 77l185 186l-185 185l53 53l185 -185l185 185l53 -53l-185 -185l185 -186l-53 -53l-185 185l-185 -185z"></glyph><glyph glyph-name="Oslash" unicode="Ø" d="M446 -13q-80 0 -154 26.5t-131 77.5t-91 124.5t-34 167.5t34 167.5t91 124.5t131 77.5t154 26.5t154 -26.5t131 -77.5t91 -124.5t34 -167.5t-34 -167.5t-91 -124.5t-131 -77.5t-154 -26.5zM446 35q108 0 170 88.5t62 259.5t-62 259.5t-170 88.5t-170 -88.5t-62 -259.5 t62 -259.5t170 -88.5zM36 -33l775 873l45 -40l-775 -873z"></glyph><glyph glyph-name="Ugrave" unicode="Ù" d="M433 -13q-76 0 -136 18t-101.5 55.5t-63.5 95.5t-22 139v374q0 29 -9 38t-35 11l-45 4v36h338v-36l-45 -4q-26 -2 -35 -11t-9 -38v-377q0 -66 13.5 -110.5t40 -71.5t64.5 -38.5t87 -11.5q103 0 159 58t56 188v363q0 29 -9 38t-35 11l-45 4v36h234v-36l-45 -4 q-26 -2 -35 -11t-9 -38v-373q0 -152 -80.5 -230.5t-232.5 -78.5zM463 843l-251 126v3h183l99 -129h-31z"></glyph><glyph glyph-name="Uacute" unicode="Ú" d="M433 -13q-76 0 -136 18t-101.5 55.5t-63.5 95.5t-22 139v374q0 29 -9 38t-35 11l-45 4v36h338v-36l-45 -4q-26 -2 -35 -11t-9 -38v-377q0 -66 13.5 -110.5t40 -71.5t64.5 -38.5t87 -11.5q103 0 159 58t56 188v363q0 29 -9 38t-35 11l-45 4v36h234v-36l-45 -4 q-26 -2 -35 -11t-9 -38v-373q0 -152 -80.5 -230.5t-232.5 -78.5zM542 972h183v-3l-251 -126h-31z"></glyph><glyph glyph-name="Ucircumflex" unicode="Û" d="M433 -13q-76 0 -136 18t-101.5 55.5t-63.5 95.5t-22 139v374q0 29 -9 38t-35 11l-45 4v36h338v-36l-45 -4q-26 -2 -35 -11t-9 -38v-377q0 -66 13.5 -110.5t40 -71.5t64.5 -38.5t87 -11.5q103 0 159 58t56 188v363q0 29 -9 38t-35 11l-45 4v36h234v-36l-45 -4 q-26 -2 -35 -11t-9 -38v-373q0 -152 -80.5 -230.5t-232.5 -78.5zM453 992h16l165 -159h-33l-140 64l-140 -64h-33z"></glyph><glyph glyph-name="Udieresis" unicode="Ü" d="M433 -13q-76 0 -136 18t-101.5 55.5t-63.5 95.5t-22 139v374q0 29 -9 38t-35 11l-45 4v36h338v-36l-45 -4q-26 -2 -35 -11t-9 -38v-377q0 -66 13.5 -110.5t40 -71.5t64.5 -38.5t87 -11.5q103 0 159 58t56 188v363q0 29 -9 38t-35 11l-45 4v36h234v-36l-45 -4 q-26 -2 -35 -11t-9 -38v-373q0 -152 -80.5 -230.5t-232.5 -78.5zM348 837q-30 0 -50 20.5t-20 50.5q0 31 20 51t50 20q29 0 49.5 -20t20.5 -51q0 -30 -20.5 -50.5t-49.5 -20.5zM574 837q-30 0 -50 20.5t-20 50.5q0 31 20 51t50 20q29 0 49.5 -20t20.5 -51q0 -30 -20.5 -50.5 t-49.5 -20.5z"></glyph><glyph glyph-name="Yacute" unicode="Ý" d="M186 38l70 4q26 2 35 10t9 37v253l-220 331q-8 12 -14 20t-13 13t-15.5 7.5t-21.5 4.5l-33 4v36h350v-36l-43 -4q-26 -2 -38 -11.5t4 -33.5l180 -276l184 276q16 25 4 34t-38 11l-43 4v36h234v-36l-33 -4q-26 -3 -37 -11.5t-27 -33.5l-220 -332v-252q0 -29 9 -37t35 -10 l70 -4v-38h-388v38zM508 972h183v-3l-251 -126h-31z"></glyph><glyph glyph-name="Thorn" unicode="Þ" d="M42 36l35 4q26 3 40 11.5t14 37.5v580q0 29 -14 37.5t-40 11.5l-35 4v36h338v-36l-35 -4q-26 -3 -40 -11.5t-14 -37.5v-85h81q71 0 132.5 -9t106.5 -32.5t71 -63t26 -99.5t-26 -101t-71 -66t-106.5 -36t-132.5 -11h-81v-77q0 -29 14 -37t40 -10l70 -4v-38h-373v36z M291 211h74q90 0 128 40t38 123t-38 124.5t-128 41.5h-74v-329z"></glyph><glyph glyph-name="germandbls" unicode="ß" d="M442 -13q-70 0 -114 26t-44 68q0 35 27.5 56.5t72.5 16.5q6 -28 13.5 -51t18.5 -40t26.5 -26.5t38.5 -9.5q31 0 55 17.5t24 55.5q0 18 -8 34t-24 33t-40 36.5l-56 45.5l-24 19q-32 25 -52.5 45t-33.5 37.5t-18 33t-5 32.5q0 32 19.5 57.5t58.5 52.5l26 19q62 43 62 104 q0 49 -28.5 74t-69.5 25q-20 0 -42 -6.5t-40.5 -23.5t-31 -48t-12.5 -80v-590h-215v32l27 2q13 1 21 2.5t12 5t5.5 11t1.5 21.5v351h-67v32q11 2 23 5t21.5 8t16 12.5t6.5 19.5v12q0 56 25 106t66 87.5t94.5 59.5t109.5 22q38 0 72 -6.5t60 -21t41 -36t15 -51.5 q0 -32 -19 -57.5t-51 -46.5l-62 -41q-21 -14 -29 -21.5t-8 -16.5q0 -16 26.5 -41t79.5 -67l35 -28q31 -25 53.5 -47t37 -44t21.5 -45t7 -50q0 -42 -18 -75.5t-48.5 -57t-71.5 -36.5t-87 -13z"></glyph><glyph glyph-name="agrave" unicode="à" d="M194 -13q-36 0 -65.5 11.5t-51.5 30.5t-34 44t-12 53q0 36 18.5 60.5t47 42t61.5 29.5t63 23q39 14 62 28t34.5 28.5t15 31t3.5 35.5q0 35 -21.5 59t-59.5 24q-57 0 -79 -40t-5 -106q-20 -5 -36.5 -6.5t-30.5 -1.5q-41 0 -58.5 18t-17.5 37q0 16 10.5 30t28.5 27t41 24 t47 20q34 13 72.5 23.5t91.5 10.5q33 0 61.5 -7.5t49.5 -24t33 -44t11 -66.5l-8 -315h78v-32l-194 -45l-20 89q-20 -51 -56 -71t-80 -20zM262 48q11 0 22.5 6t21 19t15.5 33.5t6 50.5l1 153q-14 -12 -25.5 -19t-28.5 -18q-42 -26 -60 -57t-18 -69q0 -17 4.5 -35t13 -32 t20.5 -23t28 -9zM273 609l-230 168v11h148l110 -179h-28z"></glyph><glyph glyph-name="aacute" unicode="á" d="M194 -13q-36 0 -65.5 11.5t-51.5 30.5t-34 44t-12 53q0 36 18.5 60.5t47 42t61.5 29.5t63 23q39 14 62 28t34.5 28.5t15 31t3.5 35.5q0 35 -21.5 59t-59.5 24q-57 0 -79 -40t-5 -106q-20 -5 -36.5 -6.5t-30.5 -1.5q-41 0 -58.5 18t-17.5 37q0 16 10.5 30t28.5 27t41 24 t47 20q34 13 72.5 23.5t91.5 10.5q33 0 61.5 -7.5t49.5 -24t33 -44t11 -66.5l-8 -315h78v-32l-194 -45l-20 89q-20 -51 -56 -71t-80 -20zM262 48q11 0 22.5 6t21 19t15.5 33.5t6 50.5l1 153q-14 -12 -25.5 -19t-28.5 -18q-42 -26 -60 -57t-18 -69q0 -17 4.5 -35t13 -32 t20.5 -23t28 -9zM347 788h148v-11l-230 -168h-28z"></glyph><glyph glyph-name="acircumflex" unicode="â" d="M194 -13q-36 0 -65.5 11.5t-51.5 30.5t-34 44t-12 53q0 36 18.5 60.5t47 42t61.5 29.5t63 23q39 14 62 28t34.5 28.5t15 31t3.5 35.5q0 35 -21.5 59t-59.5 24q-57 0 -79 -40t-5 -106q-20 -5 -36.5 -6.5t-30.5 -1.5q-41 0 -58.5 18t-17.5 37q0 16 10.5 30t28.5 27t41 24 t47 20q34 13 72.5 23.5t91.5 10.5q33 0 61.5 -7.5t49.5 -24t33 -44t11 -66.5l-8 -315h78v-32l-194 -45l-20 89q-20 -51 -56 -71t-80 -20zM262 48q11 0 22.5 6t21 19t15.5 33.5t6 50.5l1 153q-14 -12 -25.5 -19t-28.5 -18q-42 -26 -60 -57t-18 -69q0 -17 4.5 -35t13 -32 t20.5 -23t28 -9zM263 810h12l164 -201h-29l-141 86l-141 -86h-29z"></glyph><glyph glyph-name="atilde" unicode="ã" d="M194 -13q-36 0 -65.5 11.5t-51.5 30.5t-34 44t-12 53q0 36 18.5 60.5t47 42t61.5 29.5t63 23q39 14 62 28t34.5 28.5t15 31t3.5 35.5q0 35 -21.5 59t-59.5 24q-57 0 -79 -40t-5 -106q-20 -5 -36.5 -6.5t-30.5 -1.5q-41 0 -58.5 18t-17.5 37q0 16 10.5 30t28.5 27t41 24 t47 20q34 13 72.5 23.5t91.5 10.5q33 0 61.5 -7.5t49.5 -24t33 -44t11 -66.5l-8 -315h78v-32l-194 -45l-20 89q-20 -51 -56 -71t-80 -20zM262 48q11 0 22.5 6t21 19t15.5 33.5t6 50.5l1 153q-14 -12 -25.5 -19t-28.5 -18q-42 -26 -60 -57t-18 -69q0 -17 4.5 -35t13 -32 t20.5 -23t28 -9zM342 645q-25 0 -45.5 9t-38.5 20t-35.5 20t-37.5 9q-24 0 -39 -14t-17 -40h-21q0 27 5.5 53.5t17 47t29.5 33.5t44 13q21 0 41 -9t38.5 -20t36.5 -20t35 -9q23 0 37.5 12t16.5 38h21q0 -41 -8 -68t-20 -44t-28 -24t-32 -7z"></glyph><glyph glyph-name="adieresis" unicode="ä" d="M194 -13q-36 0 -65.5 11.5t-51.5 30.5t-34 44t-12 53q0 36 18.5 60.5t47 42t61.5 29.5t63 23q39 14 62 28t34.5 28.5t15 31t3.5 35.5q0 35 -21.5 59t-59.5 24q-57 0 -79 -40t-5 -106q-20 -5 -36.5 -6.5t-30.5 -1.5q-41 0 -58.5 18t-17.5 37q0 16 10.5 30t28.5 27t41 24 t47 20q34 13 72.5 23.5t91.5 10.5q33 0 61.5 -7.5t49.5 -24t33 -44t11 -66.5l-8 -315h78v-32l-194 -45l-20 89q-20 -51 -56 -71t-80 -20zM262 48q11 0 22.5 6t21 19t15.5 33.5t6 50.5l1 153q-14 -12 -25.5 -19t-28.5 -18q-42 -26 -60 -57t-18 -69q0 -17 4.5 -35t13 -32 t20.5 -23t28 -9zM382 636q-29 0 -48.5 20t-19.5 49q0 30 19.5 49.5t48.5 19.5t48.5 -19.5t19.5 -49.5q0 -29 -19.5 -49t-48.5 -20zM156 636q-29 0 -48.5 20t-19.5 49q0 30 19.5 49.5t48.5 19.5t48.5 -19.5t19.5 -49.5q0 -29 -19.5 -49t-48.5 -20z"></glyph><glyph glyph-name="aring" unicode="å" d="M194 -13q-36 0 -65.5 11.5t-51.5 30.5t-34 44t-12 53q0 36 18.5 60.5t47 42t61.5 29.5t63 23q39 14 62 28t34.5 28.5t15 31t3.5 35.5q0 35 -21.5 59t-59.5 24q-57 0 -79 -40t-5 -106q-20 -5 -36.5 -6.5t-30.5 -1.5q-41 0 -58.5 18t-17.5 37q0 16 10.5 30t28.5 27t41 24 t47 20q34 13 72.5 23.5t91.5 10.5q33 0 61.5 -7.5t49.5 -24t33 -44t11 -66.5l-8 -315h78v-32l-194 -45l-20 89q-20 -51 -56 -71t-80 -20zM262 48q11 0 22.5 6t21 19t15.5 33.5t6 50.5l1 153q-14 -12 -25.5 -19t-28.5 -18q-42 -26 -60 -57t-18 -69q0 -17 4.5 -35t13 -32 t20.5 -23t28 -9zM269 585q-26 0 -48.5 9.5t-39 25.5t-26.5 38t-10 47t10 47t26.5 38.5t39 26t48.5 9.5q27 0 50 -9.5t40 -26t27 -38.5t10 -47t-10 -47t-27 -38t-40 -25.5t-50 -9.5zM269 638q32 0 49 18t17 49t-17 48.5t-49 17.5q-30 0 -47.5 -17.5t-17.5 -48.5t17.5 -49 t47.5 -18z"></glyph><glyph glyph-name="ae" unicode="æ" d="M192 -13q-37 0 -66.5 11t-50 30t-31.5 44t-11 53q0 35 17.5 59.5t44 42t58.5 30t62 24.5q36 14 58.5 28t35.5 28.5t17.5 30.5t4.5 35q0 35 -19.5 57t-54.5 22q-52 0 -73.5 -37.5t-2.5 -105.5q-20 -5 -36.5 -6.5t-30.5 -1.5q-46 0 -63.5 18t-17.5 39q0 25 34.5 51t93.5 47 q34 12 77.5 23.5t97.5 11.5q39 0 67 -8.5t44 -30.5q31 19 65 29t69 10q95 0 159.5 -52t84.5 -155h-355q1 -49 13 -90.5t35.5 -72t56.5 -47.5t76 -17q25 0 50.5 7t48 21t39.5 36.5t25 54.5h29q-17 -110 -84.5 -164.5t-174.5 -54.5q-76 0 -132 29.5t-89 80.5 q-23 -62 -68.5 -86t-102.5 -24zM198 147q0 -17 3.5 -34.5t10.5 -31.5t18.5 -23.5t28.5 -9.5q28 0 51 20t30 73q-20 51 -20 109v10l1 50q-14 -12 -24.5 -19t-27.5 -18q-41 -26 -56 -57t-15 -69zM575 485q-43 0 -70 -33t-33 -96h189q-2 70 -25 99.5t-61 29.5z"></glyph><glyph glyph-name="ccedilla" unicode="ç" d="M287 -13q-60 0 -107.5 20t-80.5 55.5t-50.5 82.5t-17.5 101q0 64 23 115t61.5 86.5t89 54.5t105.5 19q39 0 74.5 -8t63.5 -23t44.5 -38t16.5 -53q0 -32 -20.5 -52t-71.5 -20q-11 0 -24 1t-27 3q7 82 -15 119t-64 37q-19 0 -38.5 -9.5t-35 -30.5t-25 -54.5t-9.5 -80.5 t12 -88.5t34.5 -73t55.5 -49.5t75 -18q24 0 48.5 7.5t46 22.5t37.5 38t24 55h29q-19 -114 -85 -166.5t-169 -52.5zM252 -265q-15 0 -31 3t-28.5 9.5t-20.5 16t-8 23.5q0 17 14 28.5t40 6.5q0 -26 17 -40.5t40 -14.5q18 0 29.5 8.5t11.5 21.5q0 19 -33.5 39t-82.5 42l119 127 h44l-75 -80q42 -22 61.5 -42.5t19.5 -54.5q0 -17 -7.5 -34t-22.5 -30t-37 -21t-50 -8z"></glyph><glyph glyph-name="egrave" unicode="è" d="M295 -13q-62 0 -111 20.5t-83 55.5t-52 83t-18 104q0 62 22.5 112t59 85.5t83.5 54.5t96 19q95 0 159.5 -51t84.5 -154h-355q0 -49 13 -91.5t37 -74t58 -49.5t77 -18q25 0 50 7.5t46.5 22.5t38 38t24.5 55h29q-17 -110 -84.5 -164.5t-174.5 -54.5zM286 487 q-42 0 -69 -33.5t-34 -95.5h189q-2 70 -25 99.5t-61 29.5zM291 609l-230 168v11h148l110 -179h-28z"></glyph><glyph glyph-name="eacute" unicode="é" d="M295 -13q-62 0 -111 20.5t-83 55.5t-52 83t-18 104q0 62 22.5 112t59 85.5t83.5 54.5t96 19q95 0 159.5 -51t84.5 -154h-355q0 -49 13 -91.5t37 -74t58 -49.5t77 -18q25 0 50 7.5t46.5 22.5t38 38t24.5 55h29q-17 -110 -84.5 -164.5t-174.5 -54.5zM286 487 q-42 0 -69 -33.5t-34 -95.5h189q-2 70 -25 99.5t-61 29.5zM365 788h148v-11l-230 -168h-28z"></glyph><glyph glyph-name="ecircumflex" unicode="ê" d="M295 -13q-62 0 -111 20.5t-83 55.5t-52 83t-18 104q0 62 22.5 112t59 85.5t83.5 54.5t96 19q95 0 159.5 -51t84.5 -154h-355q0 -49 13 -91.5t37 -74t58 -49.5t77 -18q25 0 50 7.5t46.5 22.5t38 38t24.5 55h29q-17 -110 -84.5 -164.5t-174.5 -54.5zM286 487 q-42 0 -69 -33.5t-34 -95.5h189q-2 70 -25 99.5t-61 29.5zM281 810h12l164 -201h-29l-141 86l-141 -86h-29z"></glyph><glyph glyph-name="edieresis" unicode="ë" d="M295 -13q-62 0 -111 20.5t-83 55.5t-52 83t-18 104q0 62 22.5 112t59 85.5t83.5 54.5t96 19q95 0 159.5 -51t84.5 -154h-355q0 -49 13 -91.5t37 -74t58 -49.5t77 -18q25 0 50 7.5t46.5 22.5t38 38t24.5 55h29q-17 -110 -84.5 -164.5t-174.5 -54.5zM286 487 q-42 0 -69 -33.5t-34 -95.5h189q-2 70 -25 99.5t-61 29.5zM400 636q-29 0 -48.5 20t-19.5 49q0 30 19.5 49.5t48.5 19.5t48.5 -19.5t19.5 -49.5q0 -29 -19.5 -49t-48.5 -20zM174 636q-29 0 -48.5 20t-19.5 49q0 30 19.5 49.5t48.5 19.5t48.5 -19.5t19.5 -49.5 q0 -29 -19.5 -49t-48.5 -20z"></glyph><glyph glyph-name="igrave" unicode="ì" d="M34 32l27 2q13 1 21 2.5t12 5t5.5 11t1.5 21.5v283l-76 72v6l224 94v-455q0 -14 1.5 -21.5t5.5 -11t12 -5t21 -2.5l27 -2v-32h-282v32zM172 609l-230 168v11h148l110 -179h-28z"></glyph><glyph glyph-name="iacute" unicode="í" d="M34 32l27 2q13 1 21 2.5t12 5t5.5 11t1.5 21.5v283l-76 72v6l224 94v-455q0 -14 1.5 -21.5t5.5 -11t12 -5t21 -2.5l27 -2v-32h-282v32zM246 788h148v-11l-230 -168h-28z"></glyph><glyph glyph-name="icircumflex" unicode="î" d="M34 32l27 2q13 1 21 2.5t12 5t5.5 11t1.5 21.5v283l-76 72v6l224 94v-455q0 -14 1.5 -21.5t5.5 -11t12 -5t21 -2.5l27 -2v-32h-282v32zM162 810h12l164 -201h-29l-141 86l-141 -86h-29z"></glyph><glyph glyph-name="idieresis" unicode="ï" d="M34 32l27 2q13 1 21 2.5t12 5t5.5 11t1.5 21.5v283l-76 72v6l224 94v-455q0 -14 1.5 -21.5t5.5 -11t12 -5t21 -2.5l27 -2v-32h-282v32zM68 636q-29 0 -48.5 20t-19.5 49q0 30 19.5 49.5t48.5 19.5t48.5 -19.5t19.5 -49.5q0 -29 -19.5 -49t-48.5 -20zM268 636 q-29 0 -48.5 20t-19.5 49q0 30 19.5 49.5t48.5 19.5t48.5 -19.5t19.5 -49.5q0 -29 -19.5 -49t-48.5 -20z"></glyph><glyph glyph-name="eth" unicode="ð" d="M293 -13q-56 0 -104 18.5t-83 53t-55 84t-20 112.5q0 60 20 109t53.5 84t78 54t94.5 19q35 0 63 -12t48 -29q-36 101 -111 176l-125 -67l-21 42l109 59q-30 24 -64 44t-72 34l9 29q107 -23 196 -71l131 71l20 -42l-104 -56q109 -69 168 -167t59 -216q0 -83 -25 -144.5 t-66 -102.5t-93 -61.5t-106 -20.5zM195 246q0 -215 110 -215q62 0 88.5 68.5t26.5 193.5q0 42 -5.5 81t-16.5 76q-29 16 -67 16q-26 0 -50 -12t-43.5 -38.5t-31 -68t-11.5 -101.5z"></glyph><glyph glyph-name="ntilde" unicode="ñ" d="M30 32l27 2q13 1 21 2.5t12 5t5.5 11t1.5 21.5v283l-76 72v6l224 94v-128q17 55 54.5 87.5t97.5 32.5q30 0 56 -9t45 -30.5t30 -57.5t11 -90v-260q0 -14 1.5 -21.5t5.5 -11t12 -5t21 -2.5l27 -2v-32h-271v32l19 2q13 1 20.5 2.5t11 5.5t4.5 11t1 21v232q0 39 -5 63.5 t-14 39t-21.5 19.5t-27.5 5t-29 -5.5t-25 -19.5t-17.5 -39t-6.5 -64v-231q0 -14 1 -21t4.5 -11t11 -5.5t20.5 -2.5l19 -2v-32h-271v32zM389 645q-25 0 -45.5 9t-38.5 20t-35.5 20t-37.5 9q-24 0 -39 -14t-17 -40h-21q0 27 5.5 53.5t17 47t29.5 33.5t44 13q21 0 41 -9 t38.5 -20t36.5 -20t35 -9q23 0 37.5 12t16.5 38h21q0 -41 -8 -68t-20 -44t-28 -24t-32 -7z"></glyph><glyph glyph-name="ograve" unicode="ò" d="M306 -13q-62 0 -113 21t-87 56.5t-56 83t-20 101.5q0 60 22 110t59.5 86t88.5 56t110 20q62 0 113 -21t87 -56.5t56 -83t20 -101.5q0 -60 -22 -110t-59.5 -86t-89 -56t-109.5 -20zM308 28q23 0 43.5 11.5t35.5 37.5t23.5 69.5t8.5 108.5q0 64 -8.5 108t-23.5 70 t-35.5 37.5t-43.5 11.5q-24 0 -44.5 -11.5t-36 -37.5t-24 -70t-8.5 -108q0 -65 8.5 -108.5t24 -69.5t36 -37.5t44.5 -11.5zM313 609l-230 168v11h148l110 -179h-28z"></glyph><glyph glyph-name="oacute" unicode="ó" d="M306 -13q-62 0 -113 21t-87 56.5t-56 83t-20 101.5q0 60 22 110t59.5 86t88.5 56t110 20q62 0 113 -21t87 -56.5t56 -83t20 -101.5q0 -60 -22 -110t-59.5 -86t-89 -56t-109.5 -20zM308 28q23 0 43.5 11.5t35.5 37.5t23.5 69.5t8.5 108.5q0 64 -8.5 108t-23.5 70 t-35.5 37.5t-43.5 11.5q-24 0 -44.5 -11.5t-36 -37.5t-24 -70t-8.5 -108q0 -65 8.5 -108.5t24 -69.5t36 -37.5t44.5 -11.5zM387 788h148v-11l-230 -168h-28z"></glyph><glyph glyph-name="ocircumflex" unicode="ô" d="M306 -13q-62 0 -113 21t-87 56.5t-56 83t-20 101.5q0 60 22 110t59.5 86t88.5 56t110 20q62 0 113 -21t87 -56.5t56 -83t20 -101.5q0 -60 -22 -110t-59.5 -86t-89 -56t-109.5 -20zM308 28q23 0 43.5 11.5t35.5 37.5t23.5 69.5t8.5 108.5q0 64 -8.5 108t-23.5 70 t-35.5 37.5t-43.5 11.5q-24 0 -44.5 -11.5t-36 -37.5t-24 -70t-8.5 -108q0 -65 8.5 -108.5t24 -69.5t36 -37.5t44.5 -11.5zM303 810h12l164 -201h-29l-141 86l-141 -86h-29z"></glyph><glyph glyph-name="otilde" unicode="õ" d="M306 -13q-62 0 -113 21t-87 56.5t-56 83t-20 101.5q0 60 22 110t59.5 86t88.5 56t110 20q62 0 113 -21t87 -56.5t56 -83t20 -101.5q0 -60 -22 -110t-59.5 -86t-89 -56t-109.5 -20zM308 28q23 0 43.5 11.5t35.5 37.5t23.5 69.5t8.5 108.5q0 64 -8.5 108t-23.5 70 t-35.5 37.5t-43.5 11.5q-24 0 -44.5 -11.5t-36 -37.5t-24 -70t-8.5 -108q0 -65 8.5 -108.5t24 -69.5t36 -37.5t44.5 -11.5zM382 645q-25 0 -45.5 9t-38.5 20t-35.5 20t-37.5 9q-24 0 -39 -14t-17 -40h-21q0 27 5.5 53.5t17 47t29.5 33.5t44 13q21 0 41 -9t38.5 -20t36.5 -20 t35 -9q23 0 37.5 12t16.5 38h21q0 -41 -8 -68t-20 -44t-28 -24t-32 -7z"></glyph><glyph glyph-name="odieresis" unicode="ö" d="M306 -13q-62 0 -113 21t-87 56.5t-56 83t-20 101.5q0 60 22 110t59.5 86t88.5 56t110 20q62 0 113 -21t87 -56.5t56 -83t20 -101.5q0 -60 -22 -110t-59.5 -86t-89 -56t-109.5 -20zM308 28q23 0 43.5 11.5t35.5 37.5t23.5 69.5t8.5 108.5q0 64 -8.5 108t-23.5 70 t-35.5 37.5t-43.5 11.5q-24 0 -44.5 -11.5t-36 -37.5t-24 -70t-8.5 -108q0 -65 8.5 -108.5t24 -69.5t36 -37.5t44.5 -11.5zM422 636q-29 0 -48.5 20t-19.5 49q0 30 19.5 49.5t48.5 19.5t48.5 -19.5t19.5 -49.5q0 -29 -19.5 -49t-48.5 -20zM196 636q-29 0 -48.5 20t-19.5 49 q0 30 19.5 49.5t48.5 19.5t48.5 -19.5t19.5 -49.5q0 -29 -19.5 -49t-48.5 -20z"></glyph><glyph glyph-name="divide" unicode="÷" d="M322 363q-37 0 -63 26t-26 64q0 37 26 63t63 26q38 0 64 -26t26 -63q0 -38 -26 -64t-64 -26zM59 300h527v-75h-527v75zM322 -17q-37 0 -63 26t-26 64q0 37 26 63t63 26q38 0 64 -26t26 -63q0 -38 -26 -64t-64 -26z"></glyph><glyph glyph-name="oslash" unicode="ø" d="M316 -13q-62 0 -113 21t-87 56.5t-56 83t-20 101.5q0 60 22 110t59.5 86t88.5 56t110 20q62 0 113 -21t87 -56.5t56 -83t20 -101.5q0 -60 -22 -110t-59.5 -86t-89 -56t-109.5 -20zM318 28q23 0 43.5 11.5t35.5 37.5t23.5 69.5t8.5 108.5q0 64 -8.5 108t-23.5 70 t-35.5 37.5t-43.5 11.5q-24 0 -44.5 -11.5t-36 -37.5t-24 -70t-8.5 -108q0 -65 8.5 -108.5t24 -69.5t36 -37.5t44.5 -11.5zM586 539l-497 -595l-38 33l497 595z"></glyph><glyph glyph-name="ugrave" unicode="ù" d="M224 -13q-30 0 -56 9t-45 30.5t-30 57.5t-11 90v271l-65 25v32h213v-300q0 -39 5 -63.5t14 -39t21.5 -19.5t27.5 -5t29 5.5t25 19.5t17.5 39t6.5 64v242l-65 25v32h213v-436h73v-32l-221 -45v118q-17 -55 -54.5 -87.5t-97.5 -32.5zM304 609l-230 168v11h148l110 -179h-28 z"></glyph><glyph glyph-name="uacute" unicode="ú" d="M224 -13q-30 0 -56 9t-45 30.5t-30 57.5t-11 90v271l-65 25v32h213v-300q0 -39 5 -63.5t14 -39t21.5 -19.5t27.5 -5t29 5.5t25 19.5t17.5 39t6.5 64v242l-65 25v32h213v-436h73v-32l-221 -45v118q-17 -55 -54.5 -87.5t-97.5 -32.5zM378 788h148v-11l-230 -168h-28z"></glyph><glyph glyph-name="ucircumflex" unicode="û" d="M224 -13q-30 0 -56 9t-45 30.5t-30 57.5t-11 90v271l-65 25v32h213v-300q0 -39 5 -63.5t14 -39t21.5 -19.5t27.5 -5t29 5.5t25 19.5t17.5 39t6.5 64v242l-65 25v32h213v-436h73v-32l-221 -45v118q-17 -55 -54.5 -87.5t-97.5 -32.5zM294 810h12l164 -201h-29l-141 86 l-141 -86h-29z"></glyph><glyph glyph-name="udieresis" unicode="ü" d="M224 -13q-30 0 -56 9t-45 30.5t-30 57.5t-11 90v271l-65 25v32h213v-300q0 -39 5 -63.5t14 -39t21.5 -19.5t27.5 -5t29 5.5t25 19.5t17.5 39t6.5 64v242l-65 25v32h213v-436h73v-32l-221 -45v118q-17 -55 -54.5 -87.5t-97.5 -32.5zM413 636q-29 0 -48.5 20t-19.5 49 q0 30 19.5 49.5t48.5 19.5t48.5 -19.5t19.5 -49.5q0 -29 -19.5 -49t-48.5 -20zM187 636q-29 0 -48.5 20t-19.5 49q0 30 19.5 49.5t48.5 19.5t48.5 -19.5t19.5 -49.5q0 -29 -19.5 -49t-48.5 -20z"></glyph><glyph glyph-name="yacute" unicode="ý" d="M248 -5l-179 418q-12 28 -22.5 40t-36.5 15l-16 2v32h286v-32l-21 -2q-51 -4 -32 -49l102 -247l99 219q18 41 8.5 57t-35.5 19l-28 3v32h198v-32l-20 -2q-27 -3 -40.5 -15.5t-27.5 -44.5l-248 -542q-29 -63 -56.5 -92t-69.5 -29q-33 0 -52 22t-19 53q0 21 12 40t34 31.5 t54 18.5t72 2zM394 788h148v-11l-230 -168h-28z"></glyph><glyph glyph-name="thorn" unicode="þ" d="M350 521q42 0 79.5 -17.5t66 -51.5t45.5 -84t17 -115q0 -60 -18 -109t-49.5 -84t-73 -54t-89.5 -19q-32 0 -62.5 13t-50.5 35v-209q0 -27 10 -32t36 -6l51 -3v-33h-312v32l27 2q13 1 21 2.5t12 5t5.5 11t1.5 21.5v829l-76 64v6l224 77v-343q24 27 59.5 44.5t75.5 17.5z M273 452q-14 0 -29 -4t-29 -16v-369q12 -11 26.5 -15t28.5 -4q53 0 88 54.5t35 153.5q0 45 -9 81.5t-25.5 63t-38.5 41t-47 14.5z"></glyph><glyph glyph-name="ydieresis" unicode="ÿ" d="M248 -5l-179 418q-12 28 -22.5 40t-36.5 15l-16 2v32h286v-32l-21 -2q-51 -4 -32 -49l102 -247l99 219q18 41 8.5 57t-35.5 19l-28 3v32h198v-32l-20 -2q-27 -3 -40.5 -15.5t-27.5 -44.5l-248 -542q-29 -63 -56.5 -92t-69.5 -29q-33 0 -52 22t-19 53q0 21 12 40t34 31.5 t54 18.5t72 2zM429 636q-29 0 -48.5 20t-19.5 49q0 30 19.5 49.5t48.5 19.5t48.5 -19.5t19.5 -49.5q0 -29 -19.5 -49t-48.5 -20zM203 636q-29 0 -48.5 20t-19.5 49q0 30 19.5 49.5t48.5 19.5t48.5 -19.5t19.5 -49.5q0 -29 -19.5 -49t-48.5 -20z"></glyph><glyph glyph-name="Abreve" unicode="Ă" d="M685 85q11 -26 24.5 -34t39.5 -11l33 -4v-36h-344v36l43 4q26 2 35.5 10.5t-1.5 34.5l-64 162h-257l-65 -162q-11 -26 -1.5 -34.5t35.5 -10.5l43 -4v-36h-231v36l33 4q26 3 39.5 11t24.5 34l297 723h20zM218 306h209l-104 262zM379 827q-18 0 -43.5 5.5t-50.5 22 t-44.5 48t-24.5 84.5h58q7 -52 36 -79t69 -27t69 27t36 79h58q-5 -53 -24.5 -84.5t-44.5 -48t-50.5 -22t-43.5 -5.5z"></glyph><glyph glyph-name="Amacron" unicode="Ā" d="M685 85q11 -26 24.5 -34t39.5 -11l33 -4v-36h-344v36l43 4q26 2 35.5 10.5t-1.5 34.5l-64 162h-257l-65 -162q-11 -26 -1.5 -34.5t35.5 -10.5l43 -4v-36h-231v36l33 4q26 3 39.5 11t24.5 34l297 723h20zM218 306h209l-104 262zM222 940h314v-68h-314v68z"></glyph><glyph glyph-name="Aogonek" unicode="Ą" d="M685 85q11 -26 24.5 -34t39.5 -11l33 -4v-36h-344v36l43 4q26 2 35.5 10.5t-1.5 34.5l-64 162h-257l-65 -162q-11 -26 -1.5 -34.5t35.5 -10.5l43 -4v-36h-231v36l33 4q26 3 39.5 11t24.5 34l297 723h20zM218 306h209l-104 262zM619 -234q-21 0 -41 5.5t-35 16.5 t-24.5 26.5t-9.5 36.5q0 20 12 40.5t30.5 40t41.5 37t46 31.5h30q-25 -25 -46.5 -57.5t-21.5 -67.5q0 -30 20.5 -43.5t51.5 -13.5q22 0 48 6v-31q-17 -8 -45 -17.5t-57 -9.5z"></glyph><glyph glyph-name="Cacute" unicode="Ć" d="M477 -13q-99 0 -180.5 28.5t-139 80.5t-89.5 125t-32 162t32 162t91 125t141 80.5t183 28.5q62 0 124 -9.5t107 -25.5l46 -262h-22l-132 192q-17 25 -32 35t-27 15q-11 4 -30.5 6.5t-41.5 2.5q-48 0 -95 -16t-84 -53t-60 -97.5t-23 -150.5q0 -76 16 -145.5t50 -122 t86.5 -84t125.5 -31.5q22 0 41.5 2.5t30.5 6.5q12 5 27 15t32 35l132 192h22l-53 -262q-22 -8 -51.5 -14.5t-62 -11t-66.5 -7t-66 -2.5zM553 972h183v-3l-251 -126h-31z"></glyph><glyph glyph-name="Ccaron" unicode="Č" d="M477 -13q-99 0 -180.5 28.5t-139 80.5t-89.5 125t-32 162t32 162t91 125t141 80.5t183 28.5q62 0 124 -9.5t107 -25.5l46 -262h-22l-132 192q-17 25 -32 35t-27 15q-11 4 -30.5 6.5t-41.5 2.5q-48 0 -95 -16t-84 -53t-60 -97.5t-23 -150.5q0 -76 16 -145.5t50 -122 t86.5 -84t125.5 -31.5q22 0 41.5 2.5t30.5 6.5q12 5 27 15t32 35l132 192h22l-53 -262q-22 -8 -51.5 -14.5t-62 -11t-66.5 -7t-66 -2.5zM332 992l140 -64l140 64h33l-165 -159h-16l-165 159h33z"></glyph><glyph glyph-name="Ccircumflex" unicode="Ĉ" d="M477 -13q-99 0 -180.5 28.5t-139 80.5t-89.5 125t-32 162t32 162t91 125t141 80.5t183 28.5q62 0 124 -9.5t107 -25.5l46 -262h-22l-132 192q-17 25 -32 35t-27 15q-11 4 -30.5 6.5t-41.5 2.5q-48 0 -95 -16t-84 -53t-60 -97.5t-23 -150.5q0 -76 16 -145.5t50 -122 t86.5 -84t125.5 -31.5q22 0 41.5 2.5t30.5 6.5q12 5 27 15t32 35l132 192h22l-53 -262q-22 -8 -51.5 -14.5t-62 -11t-66.5 -7t-66 -2.5zM464 992h16l165 -159h-33l-140 64l-140 -64h-33z"></glyph><glyph glyph-name="Cdotaccent" unicode="Ċ" d="M477 -13q-99 0 -180.5 28.5t-139 80.5t-89.5 125t-32 162t32 162t91 125t141 80.5t183 28.5q62 0 124 -9.5t107 -25.5l46 -262h-22l-132 192q-17 25 -32 35t-27 15q-11 4 -30.5 6.5t-41.5 2.5q-48 0 -95 -16t-84 -53t-60 -97.5t-23 -150.5q0 -76 16 -145.5t50 -122 t86.5 -84t125.5 -31.5q22 0 41.5 2.5t30.5 6.5q12 5 27 15t32 35l132 192h22l-53 -262q-22 -8 -51.5 -14.5t-62 -11t-66.5 -7t-66 -2.5zM472 837q-30 0 -50 20.5t-20 50.5q0 31 20 51t50 20q29 0 49.5 -20t20.5 -51q0 -30 -20.5 -50.5t-49.5 -20.5z"></glyph><glyph glyph-name="Dcaron" unicode="Ď" d="M42 36l45 4q26 2 35 11t9 38v580q0 29 -9 38t-35 11l-45 4v36h301q100 0 185 -24.5t147 -72t96.5 -117t34.5 -159.5t-34.5 -161.5t-95.5 -121t-144.5 -76t-180.5 -26.5h-309v36zM343 44q63 0 115 16.5t89.5 53t58.5 95t21 142.5q0 190 -72 276.5t-218 86.5h-46v-670h52z M288 992l140 -64l140 64h33l-165 -159h-16l-165 159h33z"></glyph><glyph glyph-name="Dcroat" unicode="Đ" d="M56 36l45 4q26 2 35 11t9 38v580q0 29 -9 38t-35 11l-45 4v36h301q100 0 185 -24.5t147 -72t96.5 -117t34.5 -159.5t-34.5 -161.5t-95.5 -121t-144.5 -76t-180.5 -26.5h-309v36zM357 44q63 0 115 16.5t89.5 53t58.5 95t21 142.5q0 190 -72 276.5t-218 86.5h-46v-670h52z M56 427h399v-59h-399v59z"></glyph><glyph glyph-name="Ebreve" unicode="Ĕ" d="M42 36l45 4q26 2 35 11t9 38v580q0 29 -9 38t-35 11l-45 4v36h596l37 -271h-22l-143 207q-8 12 -14.5 15t-22.5 3h-182v-293h116q13 0 17 11l48 131h22v-336h-22l-48 131q-4 11 -17 11h-116v-321h227q14 0 18.5 2.5t12.5 11.5l184 211h22l-75 -271h-638v36zM394 827 q-18 0 -43.5 5.5t-50.5 22t-44.5 48t-24.5 84.5h58q7 -52 36 -79t69 -27t69 27t36 79h58q-5 -53 -24.5 -84.5t-44.5 -48t-50.5 -22t-43.5 -5.5z"></glyph><glyph glyph-name="Ecaron" unicode="Ě" d="M42 36l45 4q26 2 35 11t9 38v580q0 29 -9 38t-35 11l-45 4v36h596l37 -271h-22l-143 207q-8 12 -14.5 15t-22.5 3h-182v-293h116q13 0 17 11l48 131h22v-336h-22l-48 131q-4 11 -17 11h-116v-321h227q14 0 18.5 2.5t12.5 11.5l184 211h22l-75 -271h-638v36zM254 992 l140 -64l140 64h33l-165 -159h-16l-165 159h33z"></glyph><glyph glyph-name="Emacron" unicode="Ē" d="M42 36l45 4q26 2 35 11t9 38v580q0 29 -9 38t-35 11l-45 4v36h596l37 -271h-22l-143 207q-8 12 -14.5 15t-22.5 3h-182v-293h116q13 0 17 11l48 131h22v-336h-22l-48 131q-4 11 -17 11h-116v-321h227q14 0 18.5 2.5t12.5 11.5l184 211h22l-75 -271h-638v36zM237 940h314 v-68h-314v68z"></glyph><glyph glyph-name="Eogonek" unicode="Ę" d="M42 36l45 4q26 2 35 11t9 38v580q0 29 -9 38t-35 11l-45 4v36h596l37 -271h-22l-143 207q-8 12 -14.5 15t-22.5 3h-182v-293h116q13 0 17 11l48 131h22v-336h-22l-48 131q-4 11 -17 11h-116v-321h227q14 0 18.5 2.5t12.5 11.5l184 211h22l-75 -271h-638v36zM630 -234 q-21 0 -41 5.5t-35 16.5t-24.5 26.5t-9.5 36.5q0 20 12 40.5t30.5 40t41.5 37t46 31.5h30q-25 -25 -46.5 -57.5t-21.5 -67.5q0 -30 20.5 -43.5t51.5 -13.5q22 0 48 6v-31q-17 -8 -45 -17.5t-57 -9.5z"></glyph><glyph glyph-name="Edotaccent" unicode="Ė" d="M42 36l45 4q26 2 35 11t9 38v580q0 29 -9 38t-35 11l-45 4v36h596l37 -271h-22l-143 207q-8 12 -14.5 15t-22.5 3h-182v-293h116q13 0 17 11l48 131h22v-336h-22l-48 131q-4 11 -17 11h-116v-321h227q14 0 18.5 2.5t12.5 11.5l184 211h22l-75 -271h-638v36zM394 837 q-30 0 -50 20.5t-20 50.5q0 31 20 51t50 20q29 0 49.5 -20t20.5 -51q0 -30 -20.5 -50.5t-49.5 -20.5z"></glyph><glyph glyph-name="Gbreve" unicode="Ğ" d="M476 -13q-99 0 -180.5 28.5t-139 80.5t-89.5 125t-32 162t33 162t92 125t141 80.5t181 28.5q62 0 124 -9.5t107 -25.5l46 -262h-22l-132 192q-17 25 -32 35t-27 15q-11 4 -30.5 6.5t-41.5 2.5q-47 0 -93.5 -16t-84 -53t-61 -97.5t-23.5 -150.5q0 -76 16 -145t50 -121.5 t86.5 -83.5t125.5 -31q23 0 54.5 2.5t57.5 8.5v214q0 29 -9 37.5t-35 10.5l-81 4v41h374v-45h-89v-202l4 -71q-26 -9 -61 -18t-74 -15.5t-79 -10.5t-76 -4zM479 827q-18 0 -43.5 5.5t-50.5 22t-44.5 48t-24.5 84.5h58q7 -52 36 -79t69 -27t69 27t36 79h58 q-5 -53 -24.5 -84.5t-44.5 -48t-50.5 -22t-43.5 -5.5z"></glyph><glyph glyph-name="Gcircumflex" unicode="Ĝ" d="M476 -13q-99 0 -180.5 28.5t-139 80.5t-89.5 125t-32 162t33 162t92 125t141 80.5t181 28.5q62 0 124 -9.5t107 -25.5l46 -262h-22l-132 192q-17 25 -32 35t-27 15q-11 4 -30.5 6.5t-41.5 2.5q-47 0 -93.5 -16t-84 -53t-61 -97.5t-23.5 -150.5q0 -76 16 -145t50 -121.5 t86.5 -83.5t125.5 -31q23 0 54.5 2.5t57.5 8.5v214q0 29 -9 37.5t-35 10.5l-81 4v41h374v-45h-89v-202l4 -71q-26 -9 -61 -18t-74 -15.5t-79 -10.5t-76 -4zM471 992h16l165 -159h-33l-140 64l-140 -64h-33z"></glyph><glyph glyph-name="uni0122" unicode="Ģ" d="M476 -13q-99 0 -180.5 28.5t-139 80.5t-89.5 125t-32 162t33 162t92 125t141 80.5t181 28.5q62 0 124 -9.5t107 -25.5l46 -262h-22l-132 192q-17 25 -32 35t-27 15q-11 4 -30.5 6.5t-41.5 2.5q-47 0 -93.5 -16t-84 -53t-61 -97.5t-23.5 -150.5q0 -76 16 -145t50 -121.5 t86.5 -83.5t125.5 -31q23 0 54.5 2.5t57.5 8.5v214q0 29 -9 37.5t-35 10.5l-81 4v41h374v-45h-89v-202l4 -71q-26 -9 -61 -18t-74 -15.5t-79 -10.5t-76 -4zM395 -350q40 20 65.5 44t25.5 58q0 38 -24.5 56.5t-65.5 25.5q-2 38 18.5 59t56.5 21q23 0 42.5 -9t33.5 -24.5 t22 -35.5t8 -42q0 -32 -15 -59.5t-39 -50t-54 -40.5t-60 -31z"></glyph><glyph glyph-name="Gdotaccent" unicode="Ġ" d="M476 -13q-99 0 -180.5 28.5t-139 80.5t-89.5 125t-32 162t33 162t92 125t141 80.5t181 28.5q62 0 124 -9.5t107 -25.5l46 -262h-22l-132 192q-17 25 -32 35t-27 15q-11 4 -30.5 6.5t-41.5 2.5q-47 0 -93.5 -16t-84 -53t-61 -97.5t-23.5 -150.5q0 -76 16 -145t50 -121.5 t86.5 -83.5t125.5 -31q23 0 54.5 2.5t57.5 8.5v214q0 29 -9 37.5t-35 10.5l-81 4v41h374v-45h-89v-202l4 -71q-26 -9 -61 -18t-74 -15.5t-79 -10.5t-76 -4zM479 837q-30 0 -50 20.5t-20 50.5q0 31 20 51t50 20q29 0 49.5 -20t20.5 -51q0 -30 -20.5 -50.5t-49.5 -20.5z"></glyph><glyph glyph-name="Hbar" unicode="Ħ" d="M42 36l45 4q26 2 35 11t9 38v580q0 29 -9 38t-35 11l-45 4v36h338v-36l-45 -4q-26 -2 -35 -11t-9 -38v-242h321v242q0 29 -9 38t-35 11l-45 4v36h338v-36l-45 -4q-26 -2 -35 -11t-9 -38v-580q0 -29 9 -38t35 -11l45 -4v-36h-338v36l45 4q26 2 35 11t9 38v279h-321v-279 q0 -29 9 -38t35 -11l45 -4v-36h-338v36zM42 599h819v-59h-819v59z"></glyph><glyph glyph-name="Hcircumflex" unicode="Ĥ" d="M42 36l45 4q26 2 35 11t9 38v580q0 29 -9 38t-35 11l-45 4v36h338v-36l-45 -4q-26 -2 -35 -11t-9 -38v-242h321v242q0 29 -9 38t-35 11l-45 4v36h338v-36l-45 -4q-26 -2 -35 -11t-9 -38v-580q0 -29 9 -38t35 -11l45 -4v-36h-338v36l45 4q26 2 35 11t9 38v279h-321v-279 q0 -29 9 -38t35 -11l45 -4v-36h-338v36zM443 992h16l165 -159h-33l-140 64l-140 -64h-33z"></glyph><glyph glyph-name="Ibreve" unicode="Ĭ" d="M42 36l45 4q26 2 35 11t9 38v580q0 29 -9 38t-35 11l-45 4v36h338v-36l-45 -4q-26 -2 -35 -11t-9 -38v-580q0 -29 9 -38t35 -11l45 -4v-36h-338v36zM211 827q-18 0 -43.5 5.5t-50.5 22t-44.5 48t-24.5 84.5h58q7 -52 36 -79t69 -27t69 27t36 79h58q-5 -53 -24.5 -84.5 t-44.5 -48t-50.5 -22t-43.5 -5.5z"></glyph><glyph glyph-name="Idotaccent" unicode="İ" d="M42 36l45 4q26 2 35 11t9 38v580q0 29 -9 38t-35 11l-45 4v36h338v-36l-45 -4q-26 -2 -35 -11t-9 -38v-580q0 -29 9 -38t35 -11l45 -4v-36h-338v36zM211 837q-30 0 -50 20.5t-20 50.5q0 31 20 51t50 20q29 0 49.5 -20t20.5 -51q0 -30 -20.5 -50.5t-49.5 -20.5z"></glyph><glyph glyph-name="Imacron" unicode="Ī" d="M42 36l45 4q26 2 35 11t9 38v580q0 29 -9 38t-35 11l-45 4v36h338v-36l-45 -4q-26 -2 -35 -11t-9 -38v-580q0 -29 9 -38t35 -11l45 -4v-36h-338v36zM54 940h314v-68h-314v68z"></glyph><glyph glyph-name="Iogonek" unicode="Į" d="M42 36l45 4q26 2 35 11t9 38v580q0 29 -9 38t-35 11l-45 4v36h338v-36l-45 -4q-26 -2 -35 -11t-9 -38v-580q0 -29 9 -38t35 -11l45 -4v-36h-338v36zM248 -234q-21 0 -41 5.5t-35 16.5t-24.5 26.5t-9.5 36.5q0 20 12 40.5t30.5 40t41.5 37t46 31.5h30q-25 -25 -46.5 -57.5 t-21.5 -67.5q0 -30 20.5 -43.5t51.5 -13.5q22 0 48 6v-31q-17 -8 -45 -17.5t-57 -9.5z"></glyph><glyph glyph-name="Itilde" unicode="Ĩ" d="M42 36l45 4q26 2 35 11t9 38v580q0 29 -9 38t-35 11l-45 4v36h338v-36l-45 -4q-26 -2 -35 -11t-9 -38v-580q0 -29 9 -38t35 -11l45 -4v-36h-338v36zM284 829q-25 0 -45.5 9t-38.5 20t-35.5 20t-37.5 9q-24 0 -39 -14t-17 -40h-21q0 27 5.5 53.5t17 47t29.5 33.5t44 13 q21 0 41 -9t38.5 -20t36.5 -20t35 -9q23 0 37.5 12t16.5 38h21q0 -41 -8 -68t-20 -44t-28 -24t-32 -7z"></glyph><glyph glyph-name="uni1ECA" unicode="Ị" d="M42 36l45 4q26 2 35 11t9 38v580q0 29 -9 38t-35 11l-45 4v36h338v-36l-45 -4q-26 -2 -35 -11t-9 -38v-580q0 -29 9 -38t35 -11l45 -4v-36h-338v36zM211 -242q-30 0 -50 20.5t-20 50.5q0 31 20 51t50 20q29 0 49.5 -20t20.5 -51q0 -30 -20.5 -50.5t-49.5 -20.5z"></glyph><glyph glyph-name="Jcircumflex" unicode="Ĵ" d="M-13 -75q44 37 73 63t45.5 52t23 57t6.5 79v497q0 28 -8 34.5t-34 7.5l-53 2v41h350v-41l-53 -2q-26 -1 -34 -7.5t-8 -34.5v-459q0 -41 -9 -69.5t-25 -51.5t-38.5 -42t-48.5 -40q-13 -11 -33 -25t-42.5 -30t-46 -32t-42.5 -29zM207 992h16l165 -159h-33l-140 64l-140 -64 h-33z"></glyph><glyph glyph-name="uni0136" unicode="Ķ" d="M42 36l45 4q26 2 35 11t9 38v580q0 29 -9 38t-35 11l-45 4v36h338v-36l-45 -4q-26 -2 -35 -11t-9 -38v-294l306 313q11 11 6.5 19.5t-27.5 10.5l-73 4v36h298v-36l-51 -3q-34 -2 -52.5 -10.5t-35.5 -25.5l-226 -231l412 -452h-223l-334 367v-278q0 -29 9 -38t35 -11 l45 -4v-36h-338v36zM395 -350q40 20 65.5 44t25.5 58q0 38 -24.5 56.5t-65.5 25.5q-2 38 18.5 59t56.5 21q23 0 42.5 -9t33.5 -24.5t22 -35.5t8 -42q0 -32 -15 -59.5t-39 -50t-54 -40.5t-60 -31z"></glyph><glyph glyph-name="Lacute" unicode="Ĺ" d="M42 36l45 4q26 2 35 11t9 38v580q0 29 -9 38t-35 11l-45 4v36h338v-36l-45 -4q-26 -2 -35 -11t-9 -38v-623h187q14 0 18.5 2.5t12.5 11.5l184 211h22l-75 -271h-598v36zM292 972h183v-3l-251 -126h-31z"></glyph><glyph glyph-name="Lcaron" unicode="Ľ" d="M42 36l45 4q26 2 35 11t9 38v580q0 29 -9 38t-35 11l-45 4v36h338v-36l-45 -4q-26 -2 -35 -11t-9 -38v-623h187q14 0 18.5 2.5t12.5 11.5l184 211h22l-75 -271h-598v36zM438 547q40 20 65.5 44t25.5 58q0 38 -24.5 56.5t-65.5 25.5q-2 38 18.5 59t56.5 21q23 0 42.5 -9 t33.5 -24.5t22 -35.5t8 -42q0 -32 -15 -59.5t-39 -50t-54 -40.5t-60 -31z"></glyph><glyph glyph-name="uni013B" unicode="Ļ" d="M42 36l45 4q26 2 35 11t9 38v580q0 29 -9 38t-35 11l-45 4v36h338v-36l-45 -4q-26 -2 -35 -11t-9 -38v-623h187q14 0 18.5 2.5t12.5 11.5l184 211h22l-75 -271h-598v36zM284 -350q40 20 65.5 44t25.5 58q0 38 -24.5 56.5t-65.5 25.5q-2 38 18.5 59t56.5 21q23 0 42.5 -9 t33.5 -24.5t22 -35.5t8 -42q0 -32 -15 -59.5t-39 -50t-54 -40.5t-60 -31z"></glyph><glyph glyph-name="Ldot" unicode="Ŀ" d="M42 36l45 4q26 2 35 11t9 38v580q0 29 -9 38t-35 11l-45 4v36h338v-36l-45 -4q-26 -2 -35 -11t-9 -38v-623h187q14 0 18.5 2.5t12.5 11.5l184 211h22l-75 -271h-598v36zM579 352q-30 0 -50 20.5t-20 50.5q0 31 20 51t50 20q29 0 49.5 -20t20.5 -51q0 -30 -20.5 -50.5 t-49.5 -20.5z"></glyph><glyph glyph-name="glyph223" d="M42 36l45 4q26 2 35 11t9 38v580q0 29 -9 38t-35 11l-45 4v36h338v-36l-45 -4q-26 -2 -35 -11t-9 -38v-623h187q14 0 18.5 2.5t12.5 11.5l184 211h22l-75 -271h-598v36zM579 352q-30 0 -50 20.5t-20 50.5q0 31 20 51t50 20q29 0 49.5 -20t20.5 -51q0 -30 -20.5 -50.5 t-49.5 -20.5z"></glyph><glyph glyph-name="Lslash" unicode="Ł" d="M42 36l45 4q26 2 35 11t9 38v580q0 29 -9 38t-35 11l-45 4v36h338v-36l-45 -4q-26 -2 -35 -11t-9 -38v-623h187q14 0 18.5 2.5t12.5 11.5l184 211h22l-75 -271h-598v36zM-5 301l433 224v-67l-433 -224v67z"></glyph><glyph glyph-name="Eng" unicode="Ŋ" d="M46 36l35 4q26 3 40 11.5t14 37.5v558l-101 109v2h210l456 -475v386q0 29 -14 37.5t-40 11.5l-35 4v36h234v-36l-35 -4q-26 -3 -40 -11.5t-14 -37.5v-620q0 -41 -7 -71.5t-20.5 -54.5t-34.5 -44.5t-48 -39.5q-13 -9 -31 -21.5t-39 -26t-43.5 -27.5t-44.5 -27l-19 27 q34 30 60.5 56t43.5 56t26 69.5t9 96.5v96l-417 449v-498q0 -29 14 -37.5t40 -11.5l35 -4v-36h-234v36z"></glyph><glyph glyph-name="Nacute" unicode="Ń" d="M46 36l45 4q26 2 35 11t9 38v558l-101 109v2h210l456 -475v386q0 29 -9 38t-35 11l-45 4v36h234v-36l-45 -4q-26 -2 -35 -11t-9 -38v-686h-4l-561 604v-498q0 -29 9 -38t35 -11l45 -4v-36h-234v36zM543 972h183v-3l-251 -126h-31z"></glyph><glyph glyph-name="Ncaron" unicode="Ň" d="M46 36l45 4q26 2 35 11t9 38v558l-101 109v2h210l456 -475v386q0 29 -9 38t-35 11l-45 4v36h234v-36l-45 -4q-26 -2 -35 -11t-9 -38v-686h-4l-561 604v-498q0 -29 9 -38t35 -11l45 -4v-36h-234v36zM322 992l140 -64l140 64h33l-165 -159h-16l-165 159h33z"></glyph><glyph glyph-name="uni0145" unicode="Ņ" d="M46 36l45 4q26 2 35 11t9 38v558l-101 109v2h210l456 -475v386q0 29 -9 38t-35 11l-45 4v36h234v-36l-45 -4q-26 -2 -35 -11t-9 -38v-686h-4l-561 604v-498q0 -29 9 -38t35 -11l45 -4v-36h-234v36zM387 -350q40 20 65.5 44t25.5 58q0 38 -24.5 56.5t-65.5 25.5 q-2 38 18.5 59t56.5 21q23 0 42.5 -9t33.5 -24.5t22 -35.5t8 -42q0 -32 -15 -59.5t-39 -50t-54 -40.5t-60 -31z"></glyph><glyph glyph-name="OE" unicode="Œ" d="M446 -13q-80 0 -154 26.5t-131 77.5t-91 124.5t-34 167.5t34 167.5t91 124.5t131 77.5t154 26.5q77 0 139.5 -30.5t107.5 -81.5v91h477l37 -271h-12l-153 207q-9 12 -15 15t-22 3h-182v-293h116q11 0 17 11l58 131h12v-336h-12l-58 131q-6 11 -17 11h-116v-321h227 q14 0 18.5 2.5t12.5 11.5l194 211h12l-75 -271h-519v99q-45 -51 -107.5 -81.5t-139.5 -30.5zM446 731q-108 0 -170 -88.5t-62 -259.5t62 -259.5t170 -88.5t170 88.5t62 259.5t-62 259.5t-170 88.5z"></glyph><glyph glyph-name="Obreve" unicode="Ŏ" d="M446 -13q-80 0 -154 26.5t-131 77.5t-91 124.5t-34 167.5t34 167.5t91 124.5t131 77.5t154 26.5t154 -26.5t131 -77.5t91 -124.5t34 -167.5t-34 -167.5t-91 -124.5t-131 -77.5t-154 -26.5zM446 35q108 0 170 88.5t62 259.5t-62 259.5t-170 88.5t-170 -88.5t-62 -259.5 t62 -259.5t170 -88.5zM446 827q-18 0 -43.5 5.5t-50.5 22t-44.5 48t-24.5 84.5h58q7 -52 36 -79t69 -27t69 27t36 79h58q-5 -53 -24.5 -84.5t-44.5 -48t-50.5 -22t-43.5 -5.5z"></glyph><glyph glyph-name="Ohungarumlaut" unicode="Ő" d="M446 -13q-80 0 -154 26.5t-131 77.5t-91 124.5t-34 167.5t34 167.5t91 124.5t131 77.5t154 26.5t154 -26.5t131 -77.5t91 -124.5t34 -167.5t-34 -167.5t-91 -124.5t-131 -77.5t-154 -26.5zM446 35q108 0 170 88.5t62 259.5t-62 259.5t-170 88.5t-170 -88.5t-62 -259.5 t62 -259.5t170 -88.5zM447 972h183v-3l-251 -126h-31zM657 972h183v-3l-251 -126h-31z"></glyph><glyph glyph-name="Omacron" unicode="Ō" d="M446 -13q-80 0 -154 26.5t-131 77.5t-91 124.5t-34 167.5t34 167.5t91 124.5t131 77.5t154 26.5t154 -26.5t131 -77.5t91 -124.5t34 -167.5t-34 -167.5t-91 -124.5t-131 -77.5t-154 -26.5zM446 35q108 0 170 88.5t62 259.5t-62 259.5t-170 88.5t-170 -88.5t-62 -259.5 t62 -259.5t170 -88.5zM289 940h314v-68h-314v68z"></glyph><glyph glyph-name="uni1ECC" unicode="Ọ" d="M446 -13q-80 0 -154 26.5t-131 77.5t-91 124.5t-34 167.5t34 167.5t91 124.5t131 77.5t154 26.5t154 -26.5t131 -77.5t91 -124.5t34 -167.5t-34 -167.5t-91 -124.5t-131 -77.5t-154 -26.5zM446 35q108 0 170 88.5t62 259.5t-62 259.5t-170 88.5t-170 -88.5t-62 -259.5 t62 -259.5t170 -88.5zM446 -242q-30 0 -50 20.5t-20 50.5q0 31 20 51t50 20q29 0 49.5 -20t20.5 -51q0 -30 -20.5 -50.5t-49.5 -20.5z"></glyph><glyph glyph-name="Racute" unicode="Ŕ" d="M42 36l45 4q26 2 35 11t9 38v580q0 29 -9 38t-35 11l-45 4v36h317q75 0 135.5 -10t103 -31.5t65.5 -56t23 -83.5q0 -30 -10.5 -59t-33 -53.5t-59 -44t-88.5 -29.5l327 -391h-202l-305 369h-24v-280q0 -29 9 -38t35 -11l45 -4v-36h-338v36zM351 414q84 0 121 40t37 110 t-37 110t-121 40h-60v-300h60zM454 972h183v-3l-251 -126h-31z"></glyph><glyph glyph-name="Rcaron" unicode="Ř" d="M42 36l45 4q26 2 35 11t9 38v580q0 29 -9 38t-35 11l-45 4v36h317q75 0 135.5 -10t103 -31.5t65.5 -56t23 -83.5q0 -30 -10.5 -59t-33 -53.5t-59 -44t-88.5 -29.5l327 -391h-202l-305 369h-24v-280q0 -29 9 -38t35 -11l45 -4v-36h-338v36zM351 414q84 0 121 40t37 110 t-37 110t-121 40h-60v-300h60zM233 992l140 -64l140 64h33l-165 -159h-16l-165 159h33z"></glyph><glyph glyph-name="uni0156" unicode="Ŗ" d="M42 36l45 4q26 2 35 11t9 38v580q0 29 -9 38t-35 11l-45 4v36h317q75 0 135.5 -10t103 -31.5t65.5 -56t23 -83.5q0 -30 -10.5 -59t-33 -53.5t-59 -44t-88.5 -29.5l327 -391h-202l-305 369h-24v-280q0 -29 9 -38t35 -11l45 -4v-36h-338v36zM351 414q84 0 121 40t37 110 t-37 110t-121 40h-60v-300h60zM387 -350q40 20 65.5 44t25.5 58q0 38 -24.5 56.5t-65.5 25.5q-2 38 18.5 59t56.5 21q23 0 42.5 -9t33.5 -24.5t22 -35.5t8 -42q0 -32 -15 -59.5t-39 -50t-54 -40.5t-60 -31z"></glyph><glyph glyph-name="Sacute" unicode="Ś" d="M310 -13q-52 0 -108 8t-107 29l-47 246h22l140 -196q14 -20 24.5 -26t22.5 -9q27 -6 58 -6q30 0 56.5 7t46.5 22t32 37t12 52q0 58 -40.5 94.5t-119.5 61.5l-54 17q-94 29 -142 88.5t-48 147.5q0 57 25 98.5t66 68t93 39.5t107 13q42 0 82 -6.5t75 -20.5l48 -235h-22 l-140 186q-12 17 -18 20.5t-16 5.5q-15 3 -32 3q-28 0 -53.5 -7t-45.5 -21.5t-32 -36t-12 -50.5q0 -42 24 -75t85 -53l54 -17q54 -17 99 -38.5t77 -51t49.5 -69t17.5 -93.5q0 -56 -25 -99.5t-65 -73t-90 -45t-99 -15.5zM399 972h183v-3l-251 -126h-31z"></glyph><glyph glyph-name="Scaron" unicode="Š" d="M310 -13q-52 0 -108 8t-107 29l-47 246h22l140 -196q14 -20 24.5 -26t22.5 -9q27 -6 58 -6q30 0 56.5 7t46.5 22t32 37t12 52q0 58 -40.5 94.5t-119.5 61.5l-54 17q-94 29 -142 88.5t-48 147.5q0 57 25 98.5t66 68t93 39.5t107 13q42 0 82 -6.5t75 -20.5l48 -235h-22 l-140 186q-12 17 -18 20.5t-16 5.5q-15 3 -32 3q-28 0 -53.5 -7t-45.5 -21.5t-32 -36t-12 -50.5q0 -42 24 -75t85 -53l54 -17q54 -17 99 -38.5t77 -51t49.5 -69t17.5 -93.5q0 -56 -25 -99.5t-65 -73t-90 -45t-99 -15.5zM178 992l140 -64l140 64h33l-165 -159h-16l-165 159 h33z"></glyph><glyph glyph-name="Scedilla" unicode="Ş" d="M310 -13q-52 0 -108 8t-107 29l-47 246h22l140 -196q14 -20 24.5 -26t22.5 -9q27 -6 58 -6q30 0 56.5 7t46.5 22t32 37t12 52q0 58 -40.5 94.5t-119.5 61.5l-54 17q-94 29 -142 88.5t-48 147.5q0 57 25 98.5t66 68t93 39.5t107 13q42 0 82 -6.5t75 -20.5l48 -235h-22 l-140 186q-12 17 -18 20.5t-16 5.5q-15 3 -32 3q-28 0 -53.5 -7t-45.5 -21.5t-32 -36t-12 -50.5q0 -42 24 -75t85 -53l54 -17q54 -17 99 -38.5t77 -51t49.5 -69t17.5 -93.5q0 -56 -25 -99.5t-65 -73t-90 -45t-99 -15.5zM252 -270q-15 0 -31 3t-28.5 9.5t-20.5 16t-8 23.5 q0 17 14 28.5t40 6.5q0 -26 17 -40.5t40 -14.5q18 0 29.5 8.5t11.5 21.5q0 19 -33.5 39t-82.5 42l119 127h44l-75 -80q42 -22 61.5 -42.5t19.5 -54.5q0 -17 -7.5 -34t-22.5 -30t-37 -21t-50 -8z"></glyph><glyph glyph-name="Scircumflex" unicode="Ŝ" d="M310 -13q-52 0 -108 8t-107 29l-47 246h22l140 -196q14 -20 24.5 -26t22.5 -9q27 -6 58 -6q30 0 56.5 7t46.5 22t32 37t12 52q0 58 -40.5 94.5t-119.5 61.5l-54 17q-94 29 -142 88.5t-48 147.5q0 57 25 98.5t66 68t93 39.5t107 13q42 0 82 -6.5t75 -20.5l48 -235h-22 l-140 186q-12 17 -18 20.5t-16 5.5q-15 3 -32 3q-28 0 -53.5 -7t-45.5 -21.5t-32 -36t-12 -50.5q0 -42 24 -75t85 -53l54 -17q54 -17 99 -38.5t77 -51t49.5 -69t17.5 -93.5q0 -56 -25 -99.5t-65 -73t-90 -45t-99 -15.5zM310 992h16l165 -159h-33l-140 64l-140 -64h-33z"></glyph><glyph glyph-name="uni0218" unicode="Ș" d="M310 -13q-52 0 -108 8t-107 29l-47 246h22l140 -196q14 -20 24.5 -26t22.5 -9q27 -6 58 -6q30 0 56.5 7t46.5 22t32 37t12 52q0 58 -40.5 94.5t-119.5 61.5l-54 17q-94 29 -142 88.5t-48 147.5q0 57 25 98.5t66 68t93 39.5t107 13q42 0 82 -6.5t75 -20.5l48 -235h-22 l-140 186q-12 17 -18 20.5t-16 5.5q-15 3 -32 3q-28 0 -53.5 -7t-45.5 -21.5t-32 -36t-12 -50.5q0 -42 24 -75t85 -53l54 -17q54 -17 99 -38.5t77 -51t49.5 -69t17.5 -93.5q0 -56 -25 -99.5t-65 -73t-90 -45t-99 -15.5zM250 -350q40 20 65.5 44t25.5 58q0 38 -24.5 56.5 t-65.5 25.5q-2 38 18.5 59t56.5 21q23 0 42.5 -9t33.5 -24.5t22 -35.5t8 -42q0 -32 -15 -59.5t-39 -50t-54 -40.5t-60 -31z"></glyph><glyph glyph-name="Tbar" unicode="Ŧ" d="M193 38l70 4q26 2 35 10t9 37v628h-107q-16 0 -22.5 -2.5t-14.5 -15.5l-128 -212h-22l22 271h704l22 -271h-22l-128 212q-8 13 -14.5 15.5t-22.5 2.5h-107v-628q0 -29 9 -37t35 -10l70 -4v-38h-388v38zM137 428h501v-59h-501v59z"></glyph><glyph glyph-name="Tcaron" unicode="Ť" d="M193 38l70 4q26 2 35 10t9 37v628h-107q-16 0 -22.5 -2.5t-14.5 -15.5l-128 -212h-22l22 271h704l22 -271h-22l-128 212q-8 13 -14.5 15.5t-22.5 2.5h-107v-628q0 -29 9 -37t35 -10l70 -4v-38h-388v38zM247 992l140 -64l140 64h33l-165 -159h-16l-165 159h33z"></glyph><glyph glyph-name="uni0162" unicode="Ţ" d="M193 38l70 4q26 2 35 10t9 37v628h-107q-16 0 -22.5 -2.5t-14.5 -15.5l-128 -212h-22l22 271h704l22 -271h-22l-128 212q-8 13 -14.5 15.5t-22.5 2.5h-107v-628q0 -29 9 -37t35 -10l70 -4v-38h-388v38zM297 -350q40 20 65.5 44t25.5 58q0 38 -24.5 56.5t-65.5 25.5 q-2 38 18.5 59t56.5 21q23 0 42.5 -9t33.5 -24.5t22 -35.5t8 -42q0 -32 -15 -59.5t-39 -50t-54 -40.5t-60 -31z"></glyph><glyph glyph-name="uni021A" unicode="Ț" d="M193 38l70 4q26 2 35 10t9 37v628h-107q-16 0 -22.5 -2.5t-14.5 -15.5l-128 -212h-22l22 271h704l22 -271h-22l-128 212q-8 13 -14.5 15.5t-22.5 2.5h-107v-628q0 -29 9 -37t35 -10l70 -4v-38h-388v38zM297 -350q40 20 65.5 44t25.5 58q0 38 -24.5 56.5t-65.5 25.5 q-2 38 18.5 59t56.5 21q23 0 42.5 -9t33.5 -24.5t22 -35.5t8 -42q0 -32 -15 -59.5t-39 -50t-54 -40.5t-60 -31z"></glyph><glyph glyph-name="Ubreve" unicode="Ŭ" d="M433 -13q-76 0 -136 18t-101.5 55.5t-63.5 95.5t-22 139v374q0 29 -9 38t-35 11l-45 4v36h338v-36l-45 -4q-26 -2 -35 -11t-9 -38v-377q0 -66 13.5 -110.5t40 -71.5t64.5 -38.5t87 -11.5q103 0 159 58t56 188v363q0 29 -9 38t-35 11l-45 4v36h234v-36l-45 -4 q-26 -2 -35 -11t-9 -38v-373q0 -152 -80.5 -230.5t-232.5 -78.5zM461 827q-18 0 -43.5 5.5t-50.5 22t-44.5 48t-24.5 84.5h58q7 -52 36 -79t69 -27t69 27t36 79h58q-5 -53 -24.5 -84.5t-44.5 -48t-50.5 -22t-43.5 -5.5z"></glyph><glyph glyph-name="Uhungarumlaut" unicode="Ű" d="M433 -13q-76 0 -136 18t-101.5 55.5t-63.5 95.5t-22 139v374q0 29 -9 38t-35 11l-45 4v36h338v-36l-45 -4q-26 -2 -35 -11t-9 -38v-377q0 -66 13.5 -110.5t40 -71.5t64.5 -38.5t87 -11.5q103 0 159 58t56 188v363q0 29 -9 38t-35 11l-45 4v36h234v-36l-45 -4 q-26 -2 -35 -11t-9 -38v-373q0 -152 -80.5 -230.5t-232.5 -78.5zM462 972h183v-3l-251 -126h-31zM672 972h183v-3l-251 -126h-31z"></glyph><glyph glyph-name="Umacron" unicode="Ū" d="M433 -13q-76 0 -136 18t-101.5 55.5t-63.5 95.5t-22 139v374q0 29 -9 38t-35 11l-45 4v36h338v-36l-45 -4q-26 -2 -35 -11t-9 -38v-377q0 -66 13.5 -110.5t40 -71.5t64.5 -38.5t87 -11.5q103 0 159 58t56 188v363q0 29 -9 38t-35 11l-45 4v36h234v-36l-45 -4 q-26 -2 -35 -11t-9 -38v-373q0 -152 -80.5 -230.5t-232.5 -78.5zM304 940h314v-68h-314v68z"></glyph><glyph glyph-name="Uogonek" unicode="Ų" d="M433 -13q-76 0 -136 18t-101.5 55.5t-63.5 95.5t-22 139v374q0 29 -9 38t-35 11l-45 4v36h338v-36l-45 -4q-26 -2 -35 -11t-9 -38v-377q0 -66 13.5 -110.5t40 -71.5t64.5 -38.5t87 -11.5q103 0 159 58t56 188v363q0 29 -9 38t-35 11l-45 4v36h234v-36l-45 -4 q-26 -2 -35 -11t-9 -38v-373q0 -127 -56.5 -202.5t-163.5 -97.5q-24 -24 -42 -56t-18 -65q0 -30 20.5 -43.5t51.5 -13.5q22 0 48 6v-31q-17 -8 -45 -17.5t-57 -9.5q-21 0 -41 5.5t-35 16.5t-24.5 26.5t-9.5 36.5q0 18 10 37t26 37t36.5 34.5t41.5 30.5q-27 -3 -55 -3z"></glyph><glyph glyph-name="Uring" unicode="Ů" d="M433 -13q-76 0 -136 18t-101.5 55.5t-63.5 95.5t-22 139v374q0 29 -9 38t-35 11l-45 4v36h338v-36l-45 -4q-26 -2 -35 -11t-9 -38v-377q0 -66 13.5 -110.5t40 -71.5t64.5 -38.5t87 -11.5q103 0 159 58t56 188v363q0 29 -9 38t-35 11l-45 4v36h234v-36l-45 -4 q-26 -2 -35 -11t-9 -38v-373q0 -152 -80.5 -230.5t-232.5 -78.5zM461 837q-26 0 -48.5 9.5t-39 25.5t-26.5 38t-10 47t10 47t26.5 38.5t39 26t48.5 9.5q27 0 50 -9.5t40 -26t27 -38.5t10 -47t-10 -47t-27 -38t-40 -25.5t-50 -9.5zM461 890q32 0 49 18t17 49t-17 48.5 t-49 17.5q-30 0 -47.5 -17.5t-17.5 -48.5t17.5 -49t47.5 -18z"></glyph><glyph glyph-name="Utilde" unicode="Ũ" d="M433 -13q-76 0 -136 18t-101.5 55.5t-63.5 95.5t-22 139v374q0 29 -9 38t-35 11l-45 4v36h338v-36l-45 -4q-26 -2 -35 -11t-9 -38v-377q0 -66 13.5 -110.5t40 -71.5t64.5 -38.5t87 -11.5q103 0 159 58t56 188v363q0 29 -9 38t-35 11l-45 4v36h234v-36l-45 -4 q-26 -2 -35 -11t-9 -38v-373q0 -152 -80.5 -230.5t-232.5 -78.5zM534 829q-25 0 -45.5 9t-38.5 20t-35.5 20t-37.5 9q-24 0 -39 -14t-17 -40h-21q0 27 5.5 53.5t17 47t29.5 33.5t44 13q21 0 41 -9t38.5 -20t36.5 -20t35 -9q23 0 37.5 12t16.5 38h21q0 -41 -8 -68t-20 -44 t-28 -24t-32 -7z"></glyph><glyph glyph-name="uni1EE4" unicode="Ụ" d="M433 -13q-76 0 -136 18t-101.5 55.5t-63.5 95.5t-22 139v374q0 29 -9 38t-35 11l-45 4v36h338v-36l-45 -4q-26 -2 -35 -11t-9 -38v-377q0 -66 13.5 -110.5t40 -71.5t64.5 -38.5t87 -11.5q103 0 159 58t56 188v363q0 29 -9 38t-35 11l-45 4v36h234v-36l-45 -4 q-26 -2 -35 -11t-9 -38v-373q0 -152 -80.5 -230.5t-232.5 -78.5zM458 -242q-30 0 -50 20.5t-20 50.5q0 31 20 51t50 20q29 0 49.5 -20t20.5 -51q0 -30 -20.5 -50.5t-49.5 -20.5z"></glyph><glyph glyph-name="Wacute" unicode="Ẃ" d="M72 673q-11 26 -24.5 34t-39.5 11l-33 4v36h345v-36l-43 -4q-26 -2 -35.5 -10.5t1.5 -34.5l196 -469l127 295l-103 259h322v-36l-81 -4q-26 -2 -35 -10.5t1 -34.5l173 -469l198 469q11 26 1.5 34.5t-35.5 10.5l-43 4v36h232v-36l-33 -4q-26 -3 -39.5 -11t-24.5 -34 l-302 -704h-20l-184 464l-200 -464h-20zM666 972h183v-3l-251 -126h-31z"></glyph><glyph glyph-name="Wcircumflex" unicode="Ŵ" d="M72 673q-11 26 -24.5 34t-39.5 11l-33 4v36h345v-36l-43 -4q-26 -2 -35.5 -10.5t1.5 -34.5l196 -469l127 295l-103 259h322v-36l-81 -4q-26 -2 -35 -10.5t1 -34.5l173 -469l198 469q11 26 1.5 34.5t-35.5 10.5l-43 4v36h232v-36l-33 -4q-26 -3 -39.5 -11t-24.5 -34 l-302 -704h-20l-184 464l-200 -464h-20zM577 992h16l165 -159h-33l-140 64l-140 -64h-33z"></glyph><glyph glyph-name="Wdieresis" unicode="Ẅ" d="M72 673q-11 26 -24.5 34t-39.5 11l-33 4v36h345v-36l-43 -4q-26 -2 -35.5 -10.5t1.5 -34.5l196 -469l127 295l-103 259h322v-36l-81 -4q-26 -2 -35 -10.5t1 -34.5l173 -469l198 469q11 26 1.5 34.5t-35.5 10.5l-43 4v36h232v-36l-33 -4q-26 -3 -39.5 -11t-24.5 -34 l-302 -704h-20l-184 464l-200 -464h-20zM472 837q-30 0 -50 20.5t-20 50.5q0 31 20 51t50 20q29 0 49.5 -20t20.5 -51q0 -30 -20.5 -50.5t-49.5 -20.5zM698 837q-30 0 -50 20.5t-20 50.5q0 31 20 51t50 20q29 0 49.5 -20t20.5 -51q0 -30 -20.5 -50.5t-49.5 -20.5z"></glyph><glyph glyph-name="Wgrave" unicode="Ẁ" d="M72 673q-11 26 -24.5 34t-39.5 11l-33 4v36h345v-36l-43 -4q-26 -2 -35.5 -10.5t1.5 -34.5l196 -469l127 295l-103 259h322v-36l-81 -4q-26 -2 -35 -10.5t1 -34.5l173 -469l198 469q11 26 1.5 34.5t-35.5 10.5l-43 4v36h232v-36l-33 -4q-26 -3 -39.5 -11t-24.5 -34 l-302 -704h-20l-184 464l-200 -464h-20zM587 843l-251 126v3h183l99 -129h-31z"></glyph><glyph glyph-name="Ycircumflex" unicode="Ŷ" d="M186 38l70 4q26 2 35 10t9 37v253l-220 331q-8 12 -14 20t-13 13t-15.5 7.5t-21.5 4.5l-33 4v36h350v-36l-43 -4q-26 -2 -38 -11.5t4 -33.5l180 -276l184 276q16 25 4 34t-38 11l-43 4v36h234v-36l-33 -4q-26 -3 -37 -11.5t-27 -33.5l-220 -332v-252q0 -29 9 -37t35 -10 l70 -4v-38h-388v38zM419 992h16l165 -159h-33l-140 64l-140 -64h-33z"></glyph><glyph glyph-name="Ydieresis" unicode="Ÿ" d="M186 38l70 4q26 2 35 10t9 37v253l-220 331q-8 12 -14 20t-13 13t-15.5 7.5t-21.5 4.5l-33 4v36h350v-36l-43 -4q-26 -2 -38 -11.5t4 -33.5l180 -276l184 276q16 25 4 34t-38 11l-43 4v36h234v-36l-33 -4q-26 -3 -37 -11.5t-27 -33.5l-220 -332v-252q0 -29 9 -37t35 -10 l70 -4v-38h-388v38zM314 837q-30 0 -50 20.5t-20 50.5q0 31 20 51t50 20q29 0 49.5 -20t20.5 -51q0 -30 -20.5 -50.5t-49.5 -20.5zM540 837q-30 0 -50 20.5t-20 50.5q0 31 20 51t50 20q29 0 49.5 -20t20.5 -51q0 -30 -20.5 -50.5t-49.5 -20.5z"></glyph><glyph glyph-name="Ygrave" unicode="Ỳ" d="M186 38l70 4q26 2 35 10t9 37v253l-220 331q-8 12 -14 20t-13 13t-15.5 7.5t-21.5 4.5l-33 4v36h350v-36l-43 -4q-26 -2 -38 -11.5t4 -33.5l180 -276l184 276q16 25 4 34t-38 11l-43 4v36h234v-36l-33 -4q-26 -3 -37 -11.5t-27 -33.5l-220 -332v-252q0 -29 9 -37t35 -10 l70 -4v-38h-388v38zM429 843l-251 126v3h183l99 -129h-31z"></glyph><glyph glyph-name="uni0232" unicode="Ȳ" d="M186 38l70 4q26 2 35 10t9 37v253l-220 331q-8 12 -14 20t-13 13t-15.5 7.5t-21.5 4.5l-33 4v36h350v-36l-43 -4q-26 -2 -38 -11.5t4 -33.5l180 -276l184 276q16 25 4 34t-38 11l-43 4v36h234v-36l-33 -4q-26 -3 -37 -11.5t-27 -33.5l-220 -332v-252q0 -29 9 -37t35 -10 l70 -4v-38h-388v38zM270 940h314v-68h-314v68z"></glyph><glyph glyph-name="Zacute" unicode="Ź" d="M10 12l484 702h-210q-16 0 -21.5 -3.5t-15.5 -14.5l-183 -209h-22l77 271h572v-12l-481 -702h262q16 0 21.5 3.5t15.5 14.5l183 209h22l-77 -271h-627v12zM467 972h183v-3l-251 -126h-31z"></glyph><glyph glyph-name="Zcaron" unicode="Ž" d="M10 12l484 702h-210q-16 0 -21.5 -3.5t-15.5 -14.5l-183 -209h-22l77 271h572v-12l-481 -702h262q16 0 21.5 3.5t15.5 14.5l183 209h22l-77 -271h-627v12zM246 992l140 -64l140 64h33l-165 -159h-16l-165 159h33z"></glyph><glyph glyph-name="Zdotaccent" unicode="Ż" d="M10 12l484 702h-210q-16 0 -21.5 -3.5t-15.5 -14.5l-183 -209h-22l77 271h572v-12l-481 -702h262q16 0 21.5 3.5t15.5 14.5l183 209h22l-77 -271h-627v12zM386 837q-30 0 -50 20.5t-20 50.5q0 31 20 51t50 20q29 0 49.5 -20t20.5 -51q0 -30 -20.5 -50.5t-49.5 -20.5z"></glyph><glyph glyph-name="uni018F" unicode="Ə" d="M410 -13q-68 0 -132 21.5t-114.5 62t-84 100t-41.5 134.5h593q0 96 -25 166t-66.5 115t-96.5 67t-115 22q-41 0 -83 -12t-78.5 -38.5t-63 -70t-34.5 -106.5h-35q4 79 34 140.5t79 104t114 64.5t140 22q74 0 143.5 -24.5t123.5 -74t87 -123.5t33 -174q0 -94 -29.5 -167.5 t-81 -124.5t-120.5 -77.5t-147 -26.5zM410 35q42 0 80 15.5t67 43t48 65.5t24 83h-416q13 -99 66 -153t131 -54z"></glyph><glyph glyph-name="abreve" unicode="ă" d="M194 -13q-36 0 -65.5 11.5t-51.5 30.5t-34 44t-12 53q0 36 18.5 60.5t47 42t61.5 29.5t63 23q39 14 62 28t34.5 28.5t15 31t3.5 35.5q0 35 -21.5 59t-59.5 24q-57 0 -79 -40t-5 -106q-20 -5 -36.5 -6.5t-30.5 -1.5q-41 0 -58.5 18t-17.5 37q0 16 10.5 30t28.5 27t41 24 t47 20q34 13 72.5 23.5t91.5 10.5q33 0 61.5 -7.5t49.5 -24t33 -44t11 -66.5l-8 -315h78v-32l-194 -45l-20 89q-20 -51 -56 -71t-80 -20zM262 48q11 0 22.5 6t21 19t15.5 33.5t6 50.5l1 153q-14 -12 -25.5 -19t-28.5 -18q-42 -26 -60 -57t-18 -69q0 -17 4.5 -35t13 -32 t20.5 -23t28 -9zM269 628q-18 0 -43.5 5.5t-50.5 22t-44.5 48t-24.5 84.5h58q7 -52 36 -79t69 -27t69 27t36 79h58q-5 -53 -24.5 -84.5t-44.5 -48t-50.5 -22t-43.5 -5.5z"></glyph><glyph glyph-name="amacron" unicode="ā" d="M194 -13q-36 0 -65.5 11.5t-51.5 30.5t-34 44t-12 53q0 36 18.5 60.5t47 42t61.5 29.5t63 23q39 14 62 28t34.5 28.5t15 31t3.5 35.5q0 35 -21.5 59t-59.5 24q-57 0 -79 -40t-5 -106q-20 -5 -36.5 -6.5t-30.5 -1.5q-41 0 -58.5 18t-17.5 37q0 16 10.5 30t28.5 27t41 24 t47 20q34 13 72.5 23.5t91.5 10.5q33 0 61.5 -7.5t49.5 -24t33 -44t11 -66.5l-8 -315h78v-32l-194 -45l-20 89q-20 -51 -56 -71t-80 -20zM262 48q11 0 22.5 6t21 19t15.5 33.5t6 50.5l1 153q-14 -12 -25.5 -19t-28.5 -18q-42 -26 -60 -57t-18 -69q0 -17 4.5 -35t13 -32 t20.5 -23t28 -9zM112 737h314v-68h-314v68z"></glyph><glyph glyph-name="aogonek" unicode="ą" d="M194 -13q-36 0 -65.5 11.5t-51.5 30.5t-34 44t-12 53q0 36 18.5 60.5t47 42t61.5 29.5t63 23q39 14 62 28t34.5 28.5t15 31t3.5 35.5q0 35 -21.5 59t-59.5 24q-57 0 -79 -40t-5 -106q-20 -5 -36.5 -6.5t-30.5 -1.5q-41 0 -58.5 18t-17.5 37q0 16 10.5 30t28.5 27t41 24 t47 20q34 13 72.5 23.5t91.5 10.5q33 0 61.5 -7.5t49.5 -24t33 -44t11 -66.5l-8 -315h78v-32l-117 -27q-23 -24 -41 -55.5t-18 -64.5q0 -30 20.5 -43.5t51.5 -13.5q22 0 48 6v-31q-17 -8 -45 -17.5t-57 -9.5q-21 0 -41 5.5t-35 16.5t-24.5 26.5t-9.5 36.5q0 18 9.5 36 t25 35.5t35.5 33.5t40 30l-36 -9l-20 89q-20 -51 -56 -71t-80 -20zM262 48q11 0 22.5 6t21 19t15.5 33.5t6 50.5l1 153q-14 -12 -25.5 -19t-28.5 -18q-42 -26 -60 -57t-18 -69q0 -17 4.5 -35t13 -32t20.5 -23t28 -9z"></glyph><glyph glyph-name="cacute" unicode="ć" d="M287 -13q-60 0 -107.5 20t-80.5 55.5t-50.5 82.5t-17.5 101q0 64 23 115t61.5 86.5t89 54.5t105.5 19q39 0 74.5 -8t63.5 -23t44.5 -38t16.5 -53q0 -32 -20.5 -52t-71.5 -20q-11 0 -24 1t-27 3q7 82 -15 119t-64 37q-19 0 -38.5 -9.5t-35 -30.5t-25 -54.5t-9.5 -80.5 t12 -88.5t34.5 -73t55.5 -49.5t75 -18q24 0 48.5 7.5t46 22.5t37.5 38t24 55h29q-19 -114 -85 -166.5t-169 -52.5zM365 788h148v-11l-230 -168h-28z"></glyph><glyph glyph-name="ccaron" unicode="č" d="M287 -13q-60 0 -107.5 20t-80.5 55.5t-50.5 82.5t-17.5 101q0 64 23 115t61.5 86.5t89 54.5t105.5 19q39 0 74.5 -8t63.5 -23t44.5 -38t16.5 -53q0 -32 -20.5 -52t-71.5 -20q-11 0 -24 1t-27 3q7 82 -15 119t-64 37q-19 0 -38.5 -9.5t-35 -30.5t-25 -54.5t-9.5 -80.5 t12 -88.5t34.5 -73t55.5 -49.5t75 -18q24 0 48.5 7.5t46 22.5t37.5 38t24 55h29q-19 -114 -85 -166.5t-169 -52.5zM146 810l141 -86l141 86h29l-164 -201h-12l-164 201h29z"></glyph><glyph glyph-name="ccircumflex" unicode="ĉ" d="M287 -13q-60 0 -107.5 20t-80.5 55.5t-50.5 82.5t-17.5 101q0 64 23 115t61.5 86.5t89 54.5t105.5 19q39 0 74.5 -8t63.5 -23t44.5 -38t16.5 -53q0 -32 -20.5 -52t-71.5 -20q-11 0 -24 1t-27 3q7 82 -15 119t-64 37q-19 0 -38.5 -9.5t-35 -30.5t-25 -54.5t-9.5 -80.5 t12 -88.5t34.5 -73t55.5 -49.5t75 -18q24 0 48.5 7.5t46 22.5t37.5 38t24 55h29q-19 -114 -85 -166.5t-169 -52.5zM281 810h12l164 -201h-29l-141 86l-141 -86h-29z"></glyph><glyph glyph-name="cdotaccent" unicode="ċ" d="M287 -13q-60 0 -107.5 20t-80.5 55.5t-50.5 82.5t-17.5 101q0 64 23 115t61.5 86.5t89 54.5t105.5 19q39 0 74.5 -8t63.5 -23t44.5 -38t16.5 -53q0 -32 -20.5 -52t-71.5 -20q-11 0 -24 1t-27 3q7 82 -15 119t-64 37q-19 0 -38.5 -9.5t-35 -30.5t-25 -54.5t-9.5 -80.5 t12 -88.5t34.5 -73t55.5 -49.5t75 -18q24 0 48.5 7.5t46 22.5t37.5 38t24 55h29q-19 -114 -85 -166.5t-169 -52.5zM287 636q-29 0 -48.5 20t-19.5 49q0 30 19.5 49.5t48.5 19.5t48.5 -19.5t19.5 -49.5q0 -29 -19.5 -49t-48.5 -20z"></glyph><glyph glyph-name="dcaron" unicode="ď" d="M241 -13q-42 0 -79.5 17.5t-66 51.5t-45.5 84t-17 115q0 60 18 109t49.5 84t73 54t89.5 19q32 0 62.5 -13t50.5 -35v182l-94 64v6l242 77v-736h73v-32l-221 -45v60q-24 -27 -59.5 -44.5t-75.5 -17.5zM198 256q0 -45 9 -81.5t25.5 -63t38 -41t47.5 -14.5q14 0 29 4t29 16 v369q-12 11 -26.5 15t-28.5 4q-53 0 -88 -54.5t-35 -153.5zM577 547q40 20 65.5 44t25.5 58q0 38 -24.5 56.5t-65.5 25.5q-2 38 18.5 59t56.5 21q23 0 42.5 -9t33.5 -24.5t22 -35.5t8 -42q0 -32 -15 -59.5t-39 -50t-54 -40.5t-60 -31z"></glyph><glyph glyph-name="dcroat" unicode="đ" d="M241 -13q-42 0 -79.5 17.5t-66 51.5t-45.5 84t-17 115q0 60 18 109t49.5 84t73 54t89.5 19q32 0 62.5 -13t50.5 -35v182l-94 64v6l242 77v-736h73v-32l-221 -45v60q-24 -27 -59.5 -44.5t-75.5 -17.5zM198 256q0 -45 9 -81.5t25.5 -63t38 -41t47.5 -14.5q14 0 29 4t29 16 v369q-12 11 -26.5 15t-28.5 4q-53 0 -88 -54.5t-35 -153.5zM271 616h326v-51h-326v51z"></glyph><glyph glyph-name="ebreve" unicode="ĕ" d="M295 -13q-62 0 -111 20.5t-83 55.5t-52 83t-18 104q0 62 22.5 112t59 85.5t83.5 54.5t96 19q95 0 159.5 -51t84.5 -154h-355q0 -49 13 -91.5t37 -74t58 -49.5t77 -18q25 0 50 7.5t46.5 22.5t38 38t24.5 55h29q-17 -110 -84.5 -164.5t-174.5 -54.5zM286 487 q-42 0 -69 -33.5t-34 -95.5h189q-2 70 -25 99.5t-61 29.5zM287 628q-18 0 -43.5 5.5t-50.5 22t-44.5 48t-24.5 84.5h58q7 -52 36 -79t69 -27t69 27t36 79h58q-5 -53 -24.5 -84.5t-44.5 -48t-50.5 -22t-43.5 -5.5z"></glyph><glyph glyph-name="ecaron" unicode="ě" d="M295 -13q-62 0 -111 20.5t-83 55.5t-52 83t-18 104q0 62 22.5 112t59 85.5t83.5 54.5t96 19q95 0 159.5 -51t84.5 -154h-355q0 -49 13 -91.5t37 -74t58 -49.5t77 -18q25 0 50 7.5t46.5 22.5t38 38t24.5 55h29q-17 -110 -84.5 -164.5t-174.5 -54.5zM286 487 q-42 0 -69 -33.5t-34 -95.5h189q-2 70 -25 99.5t-61 29.5zM146 810l141 -86l141 86h29l-164 -201h-12l-164 201h29z"></glyph><glyph glyph-name="emacron" unicode="ē" d="M295 -13q-62 0 -111 20.5t-83 55.5t-52 83t-18 104q0 62 22.5 112t59 85.5t83.5 54.5t96 19q95 0 159.5 -51t84.5 -154h-355q0 -49 13 -91.5t37 -74t58 -49.5t77 -18q25 0 50 7.5t46.5 22.5t38 38t24.5 55h29q-17 -110 -84.5 -164.5t-174.5 -54.5zM286 487 q-42 0 -69 -33.5t-34 -95.5h189q-2 70 -25 99.5t-61 29.5zM130 737h314v-68h-314v68z"></glyph><glyph glyph-name="eogonek" unicode="ę" d="M443 -207q-17 -8 -45 -17.5t-57 -9.5q-21 0 -41 5.5t-35 16.5t-24.5 26.5t-9.5 36.5q0 22 12 42t32 38t44.5 34t50.5 29q-6 -1 -16 -2.5t-20.5 -2.5t-21 -1.5t-17.5 -0.5q-62 0 -111 20.5t-83 55.5t-52 83t-18 104q0 62 22.5 112t59 85.5t83.5 54.5t96 19q95 0 159.5 -51 t84.5 -154h-355q0 -49 13 -91.5t37 -74t58 -49.5t77 -18q25 0 51 8t48.5 24t39 41t22.5 59h28q-6 -46 -20.5 -79.5t-34 -58t-42.5 -43t-46 -35.5q-45 -34 -67 -62.5t-22 -61.5q0 -30 20.5 -43.5t51.5 -13.5q22 0 48 6v-31zM286 487q-42 0 -69 -33.5t-34 -95.5h189 q-2 70 -25 99.5t-61 29.5z"></glyph><glyph glyph-name="edotaccent" unicode="ė" d="M295 -13q-62 0 -111 20.5t-83 55.5t-52 83t-18 104q0 62 22.5 112t59 85.5t83.5 54.5t96 19q95 0 159.5 -51t84.5 -154h-355q0 -49 13 -91.5t37 -74t58 -49.5t77 -18q25 0 50 7.5t46.5 22.5t38 38t24.5 55h29q-17 -110 -84.5 -164.5t-174.5 -54.5zM286 487 q-42 0 -69 -33.5t-34 -95.5h189q-2 70 -25 99.5t-61 29.5zM287 636q-29 0 -48.5 20t-19.5 49q0 30 19.5 49.5t48.5 19.5t48.5 -19.5t19.5 -49.5q0 -29 -19.5 -49t-48.5 -20z"></glyph><glyph glyph-name="gbreve" unicode="ğ" d="M270 170q-42 0 -76 9l-61 -73l268 -22q52 -5 85.5 -14.5t52.5 -24t26 -33.5t7 -42q0 -44 -29 -85.5t-80.5 -74t-122 -52t-152.5 -19.5q-87 0 -131.5 30.5t-44.5 72.5q0 22 13 41t35 33.5t51.5 25t61.5 16.5q-17 6 -37.5 17.5t-41 24t-38.5 24t-28 18.5l129 150 q-51 23 -80 63t-29 89q0 36 16.5 68.5t46 56.5t71 38t91.5 14q51 0 91.5 -14t70.5 -37l44 86h142l-51 -99h-121q23 -23 35 -50.5t12 -59.5q0 -36 -16.5 -68.5t-46.5 -56.5t-71.5 -38t-91.5 -14zM300 204q24 0 40.5 22.5t16.5 73.5q0 36 -7.5 70t-21.5 60.5t-34 42.5t-46 16 q-25 0 -41.5 -22.5t-16.5 -74.5q0 -35 7.5 -69t21.5 -60.5t34.5 -42.5t46.5 -16zM243 -213q37 0 74 8.5t66.5 22.5t48 33.5t18.5 40.5q0 35 -46.5 48t-131.5 13q-44 0 -74 -7.5t-48 -19t-25.5 -26t-7.5 -29.5q0 -17 6.5 -32t21.5 -26.5t39 -18.5t59 -7zM293 628 q-18 0 -43.5 5.5t-50.5 22t-44.5 48t-24.5 84.5h58q7 -52 36 -79t69 -27t69 27t36 79h58q-5 -53 -24.5 -84.5t-44.5 -48t-50.5 -22t-43.5 -5.5z"></glyph><glyph glyph-name="gcircumflex" unicode="ĝ" d="M270 170q-42 0 -76 9l-61 -73l268 -22q52 -5 85.5 -14.5t52.5 -24t26 -33.5t7 -42q0 -44 -29 -85.5t-80.5 -74t-122 -52t-152.5 -19.5q-87 0 -131.5 30.5t-44.5 72.5q0 22 13 41t35 33.5t51.5 25t61.5 16.5q-17 6 -37.5 17.5t-41 24t-38.5 24t-28 18.5l129 150 q-51 23 -80 63t-29 89q0 36 16.5 68.5t46 56.5t71 38t91.5 14q51 0 91.5 -14t70.5 -37l44 86h142l-51 -99h-121q23 -23 35 -50.5t12 -59.5q0 -36 -16.5 -68.5t-46.5 -56.5t-71.5 -38t-91.5 -14zM300 204q24 0 40.5 22.5t16.5 73.5q0 36 -7.5 70t-21.5 60.5t-34 42.5t-46 16 q-25 0 -41.5 -22.5t-16.5 -74.5q0 -35 7.5 -69t21.5 -60.5t34.5 -42.5t46.5 -16zM243 -213q37 0 74 8.5t66.5 22.5t48 33.5t18.5 40.5q0 35 -46.5 48t-131.5 13q-44 0 -74 -7.5t-48 -19t-25.5 -26t-7.5 -29.5q0 -17 6.5 -32t21.5 -26.5t39 -18.5t59 -7zM287 810h12l164 -201 h-29l-141 86l-141 -86h-29z"></glyph><glyph glyph-name="uni0123" unicode="ģ" d="M270 170q-42 0 -76 9l-61 -73l268 -22q52 -5 85.5 -14.5t52.5 -24t26 -33.5t7 -42q0 -44 -29 -85.5t-80.5 -74t-122 -52t-152.5 -19.5q-87 0 -131.5 30.5t-44.5 72.5q0 22 13 41t35 33.5t51.5 25t61.5 16.5q-17 6 -37.5 17.5t-41 24t-38.5 24t-28 18.5l129 150 q-51 23 -80 63t-29 89q0 36 16.5 68.5t46 56.5t71 38t91.5 14q51 0 91.5 -14t70.5 -37l44 86h142l-51 -99h-121q23 -23 35 -50.5t12 -59.5q0 -36 -16.5 -68.5t-46.5 -56.5t-71.5 -38t-91.5 -14zM300 204q24 0 40.5 22.5t16.5 73.5q0 36 -7.5 70t-21.5 60.5t-34 42.5t-46 16 q-25 0 -41.5 -22.5t-16.5 -74.5q0 -35 7.5 -69t21.5 -60.5t34.5 -42.5t46.5 -16zM243 -213q37 0 74 8.5t66.5 22.5t48 33.5t18.5 40.5q0 35 -46.5 48t-131.5 13q-44 0 -74 -7.5t-48 -19t-25.5 -26t-7.5 -29.5q0 -17 6.5 -32t21.5 -26.5t39 -18.5t59 -7zM384 857 q-40 -20 -65.5 -44t-25.5 -58q0 -38 24.5 -56.5t65.5 -25.5q2 -38 -18.5 -59t-56.5 -21q-23 0 -42.5 9t-33.5 24.5t-22 35.5t-8 42q0 32 15 59.5t39 50t54 40.5t60 31z"></glyph><glyph glyph-name="gdotaccent" unicode="ġ" d="M270 170q-42 0 -76 9l-61 -73l268 -22q52 -5 85.5 -14.5t52.5 -24t26 -33.5t7 -42q0 -44 -29 -85.5t-80.5 -74t-122 -52t-152.5 -19.5q-87 0 -131.5 30.5t-44.5 72.5q0 22 13 41t35 33.5t51.5 25t61.5 16.5q-17 6 -37.5 17.5t-41 24t-38.5 24t-28 18.5l129 150 q-51 23 -80 63t-29 89q0 36 16.5 68.5t46 56.5t71 38t91.5 14q51 0 91.5 -14t70.5 -37l44 86h142l-51 -99h-121q23 -23 35 -50.5t12 -59.5q0 -36 -16.5 -68.5t-46.5 -56.5t-71.5 -38t-91.5 -14zM300 204q24 0 40.5 22.5t16.5 73.5q0 36 -7.5 70t-21.5 60.5t-34 42.5t-46 16 q-25 0 -41.5 -22.5t-16.5 -74.5q0 -35 7.5 -69t21.5 -60.5t34.5 -42.5t46.5 -16zM243 -213q37 0 74 8.5t66.5 22.5t48 33.5t18.5 40.5q0 35 -46.5 48t-131.5 13q-44 0 -74 -7.5t-48 -19t-25.5 -26t-7.5 -29.5q0 -17 6.5 -32t21.5 -26.5t39 -18.5t59 -7zM293 636 q-29 0 -48.5 20t-19.5 49q0 30 19.5 49.5t48.5 19.5t48.5 -19.5t19.5 -49.5q0 -29 -19.5 -49t-48.5 -20z"></glyph><glyph glyph-name="hbar" unicode="ħ" d="M17 32l27 2q13 1 21 2.5t12 5t5.5 11t1.5 21.5v581l-76 64v6l224 77v-401q17 55 54.5 87.5t97.5 32.5q30 0 56 -9t45 -30.5t30 -57.5t11 -90v-260q0 -14 1.5 -21.5t5.5 -11t12 -5t21 -2.5l27 -2v-32h-271v32l19 2q13 1 20.5 2.5t11 5.5t4.5 11t1 21v232q0 39 -5 63.5 t-14 39t-21.5 19.5t-27.5 5t-29 -5.5t-25 -19.5t-17.5 -39t-6.5 -64v-231q0 -14 1 -21t4.5 -11t11 -5.5t20.5 -2.5l19 -2v-32h-271v32zM8 616h326v-51h-326v51z"></glyph><glyph glyph-name="hcircumflex" unicode="ĥ" d="M17 32l27 2q13 1 21 2.5t12 5t5.5 11t1.5 21.5v581l-76 64v6l224 77v-401q17 55 54.5 87.5t97.5 32.5q30 0 56 -9t45 -30.5t30 -57.5t11 -90v-260q0 -14 1.5 -21.5t5.5 -11t12 -5t21 -2.5l27 -2v-32h-271v32l19 2q13 1 20.5 2.5t11 5.5t4.5 11t1 21v232q0 39 -5 63.5 t-14 39t-21.5 19.5t-27.5 5t-29 -5.5t-25 -19.5t-17.5 -39t-6.5 -64v-231q0 -14 1 -21t4.5 -11t11 -5.5t20.5 -2.5l19 -2v-32h-271v32zM148 992h16l165 -159h-33l-140 64l-140 -64h-33z"></glyph><glyph glyph-name="dotlessi" unicode="ı" d="M34 32l27 2q13 1 21 2.5t12 5t5.5 11t1.5 21.5v283l-76 72v6l224 94v-455q0 -14 1.5 -21.5t5.5 -11t12 -5t21 -2.5l27 -2v-32h-282v32z"></glyph><glyph glyph-name="ibreve" unicode="ĭ" d="M34 32l27 2q13 1 21 2.5t12 5t5.5 11t1.5 21.5v283l-76 72v6l224 94v-455q0 -14 1.5 -21.5t5.5 -11t12 -5t21 -2.5l27 -2v-32h-282v32zM168 628q-18 0 -43.5 5.5t-50.5 22t-44.5 48t-24.5 84.5h58q7 -52 36 -79t69 -27t69 27t36 79h58q-5 -53 -24.5 -84.5t-44.5 -48 t-50.5 -22t-43.5 -5.5z"></glyph><glyph glyph-name="imacron" unicode="ī" d="M34 32l27 2q13 1 21 2.5t12 5t5.5 11t1.5 21.5v283l-76 72v6l224 94v-455q0 -14 1.5 -21.5t5.5 -11t12 -5t21 -2.5l27 -2v-32h-282v32zM11 737h314v-68h-314v68z"></glyph><glyph glyph-name="iogonek" unicode="į" d="M34 32l27 2q13 1 21 2.5t12 5t5.5 11t1.5 21.5v283l-76 72v6l224 94v-455q0 -14 1.5 -21.5t5.5 -11t12 -5t21 -2.5l27 -2v-32h-282v32zM81 710q0 18 7.5 35t20.5 30t30 20.5t35 7.5q19 0 36 -7.5t30 -20.5t20.5 -30t7.5 -35q0 -19 -7.5 -36t-20.5 -30t-30 -20.5t-36 -7.5 q-18 0 -35 7.5t-30 20.5t-20.5 30t-7.5 36zM178 -234q-21 0 -41 5.5t-35 16.5t-24.5 26.5t-9.5 36.5q0 20 12 40.5t30.5 40t41.5 37t46 31.5h30q-25 -25 -46.5 -57.5t-21.5 -67.5q0 -30 20.5 -43.5t51.5 -13.5q22 0 48 6v-31q-17 -8 -45 -17.5t-57 -9.5z"></glyph><glyph glyph-name="itilde" unicode="ĩ" d="M34 32l27 2q13 1 21 2.5t12 5t5.5 11t1.5 21.5v283l-76 72v6l224 94v-455q0 -14 1.5 -21.5t5.5 -11t12 -5t21 -2.5l27 -2v-32h-282v32zM241 645q-25 0 -45.5 9t-38.5 20t-35.5 20t-37.5 9q-24 0 -39 -14t-17 -40h-21q0 27 5.5 53.5t17 47t29.5 33.5t44 13q21 0 41 -9 t38.5 -20t36.5 -20t35 -9q23 0 37.5 12t16.5 38h21q0 -41 -8 -68t-20 -44t-28 -24t-32 -7z"></glyph><glyph glyph-name="uni1ECB" unicode="ị" d="M34 32l27 2q13 1 21 2.5t12 5t5.5 11t1.5 21.5v283l-76 72v6l224 94v-455q0 -14 1.5 -21.5t5.5 -11t12 -5t21 -2.5l27 -2v-32h-282v32zM81 710q0 18 7.5 35t20.5 30t30 20.5t35 7.5q19 0 36 -7.5t30 -20.5t20.5 -30t7.5 -35q0 -19 -7.5 -36t-20.5 -30t-30 -20.5t-36 -7.5 q-18 0 -35 7.5t-30 20.5t-20.5 30t-7.5 36zM175 -237q-29 0 -48.5 20t-19.5 49q0 30 19.5 49.5t48.5 19.5t48.5 -19.5t19.5 -49.5q0 -29 -19.5 -49t-48.5 -20z"></glyph><glyph glyph-name="uni0237" unicode="ȷ" d="M-51 -236q34 30 60.5 56t43.5 56t26 69.5t9 96.5v315l-76 72v6l224 94v-480q0 -41 -7 -71.5t-20.5 -54.5t-34.5 -44.5t-48 -39.5q-13 -9 -31 -21.5t-39 -26t-43.5 -27.5t-44.5 -27z"></glyph><glyph glyph-name="jcircumflex" unicode="ĵ" d="M-51 -236q34 30 60.5 56t43.5 56t26 69.5t9 96.5v315l-76 72v6l224 94v-480q0 -41 -7 -71.5t-20.5 -54.5t-34.5 -44.5t-48 -39.5q-13 -9 -31 -21.5t-39 -26t-43.5 -27.5t-44.5 -27zM149 810h12l164 -201h-29l-141 86l-141 -86h-29z"></glyph><glyph glyph-name="uni0137" unicode="ķ" d="M17 32l21 2q26 2 36 12t10 37v572l-76 64v6l224 77v-541l177 157q21 19 17 33.5t-30 16.5l-38 2v32h239v-32l-27 -2q-16 -2 -28.5 -5.5t-24 -9.5t-22.5 -14.5t-25 -20.5l-106 -91l283 -327h-199l-216 248v-165q0 -27 10 -37t36 -12l21 -2v-32h-282v32zM263 -350 q40 20 65.5 44t25.5 58q0 38 -24.5 56.5t-65.5 25.5q-2 38 18.5 59t56.5 21q23 0 42.5 -9t33.5 -24.5t22 -35.5t8 -42q0 -32 -15 -59.5t-39 -50t-54 -40.5t-60 -31z"></glyph><glyph glyph-name="lacute" unicode="ĺ" d="M21 32l27 2q13 1 21 2.5t12 5t5.5 11t1.5 21.5v581l-76 64v6l224 77v-728q0 -14 1.5 -21.5t5.5 -11t12 -5t21 -2.5l27 -2v-32h-282v32zM233 1044h148v-11l-230 -168h-28z"></glyph><glyph glyph-name="lcaron" unicode="ľ" d="M21 32l27 2q13 1 21 2.5t12 5t5.5 11t1.5 21.5v581l-76 64v6l224 77v-728q0 -14 1.5 -21.5t5.5 -11t12 -5t21 -2.5l27 -2v-32h-282v32zM295 547q40 20 65.5 44t25.5 58q0 38 -24.5 56.5t-65.5 25.5q-2 38 18.5 59t56.5 21q23 0 42.5 -9t33.5 -24.5t22 -35.5t8 -42 q0 -32 -15 -59.5t-39 -50t-54 -40.5t-60 -31z"></glyph><glyph glyph-name="uni013C" unicode="ļ" d="M21 32l27 2q13 1 21 2.5t12 5t5.5 11t1.5 21.5v581l-76 64v6l224 77v-728q0 -14 1.5 -21.5t5.5 -11t12 -5t21 -2.5l27 -2v-32h-282v32zM67 -350q40 20 65.5 44t25.5 58q0 38 -24.5 56.5t-65.5 25.5q-2 38 18.5 59t56.5 21q23 0 42.5 -9t33.5 -24.5t22 -35.5t8 -42 q0 -32 -15 -59.5t-39 -50t-54 -40.5t-60 -31z"></glyph><glyph glyph-name="ldot" unicode="ŀ" d="M21 32l27 2q13 1 21 2.5t12 5t5.5 11t1.5 21.5v581l-76 64v6l224 77v-728q0 -14 1.5 -21.5t5.5 -11t12 -5t21 -2.5l27 -2v-32h-282v32zM382 327q-29 0 -48.5 20t-19.5 49q0 30 19.5 49.5t48.5 19.5t48.5 -19.5t19.5 -49.5q0 -29 -19.5 -49t-48.5 -20z"></glyph><glyph glyph-name="glyph298" d="M21 32l27 2q13 1 21 2.5t12 5t5.5 11t1.5 21.5v581l-76 64v6l224 77v-728q0 -14 1.5 -21.5t5.5 -11t12 -5t21 -2.5l27 -2v-32h-282v32zM382 327q-29 0 -48.5 20t-19.5 49q0 30 19.5 49.5t48.5 19.5t48.5 -19.5t19.5 -49.5q0 -29 -19.5 -49t-48.5 -20z"></glyph><glyph glyph-name="lslash" unicode="ł" d="M61 32l27 2q13 1 21 2.5t12 5t5.5 11t1.5 21.5v581l-76 64v6l224 77v-728q0 -14 1.5 -21.5t5.5 -11t12 -5t21 -2.5l27 -2v-32h-282v32zM11 322l382 201v-60l-382 -201v60z"></glyph><glyph glyph-name="eng" unicode="ŋ" d="M397 521q30 0 56 -9t45 -30.5t30 -57.5t11 -90v-285q0 -41 -7 -71.5t-20.5 -54.5t-34.5 -44.5t-48 -39.5q-13 -9 -31 -21.5t-39 -26t-43.5 -27.5t-44.5 -27l-19 27q34 30 60.5 56t43.5 56t26 69.5t9 96.5v264q0 39 -5 63.5t-14 39t-21.5 19.5t-27.5 5t-29 -5.5t-25 -19.5 t-17.5 -39t-6.5 -64v-231q0 -14 1 -21t4.5 -11t11 -5.5t20.5 -2.5l19 -2v-32h-271v32l27 2q13 1 21 2.5t12 5t5.5 11t1.5 21.5v283l-76 72v6l224 94v-128q17 55 54.5 87.5t97.5 32.5z"></glyph><glyph glyph-name="nacute" unicode="ń" d="M30 32l27 2q13 1 21 2.5t12 5t5.5 11t1.5 21.5v283l-76 72v6l224 94v-128q17 55 54.5 87.5t97.5 32.5q30 0 56 -9t45 -30.5t30 -57.5t11 -90v-260q0 -14 1.5 -21.5t5.5 -11t12 -5t21 -2.5l27 -2v-32h-271v32l19 2q13 1 20.5 2.5t11 5.5t4.5 11t1 21v232q0 39 -5 63.5 t-14 39t-21.5 19.5t-27.5 5t-29 -5.5t-25 -19.5t-17.5 -39t-6.5 -64v-231q0 -14 1 -21t4.5 -11t11 -5.5t20.5 -2.5l19 -2v-32h-271v32zM394 788h148v-11l-230 -168h-28z"></glyph><glyph glyph-name="ncaron" unicode="ň" d="M30 32l27 2q13 1 21 2.5t12 5t5.5 11t1.5 21.5v283l-76 72v6l224 94v-128q17 55 54.5 87.5t97.5 32.5q30 0 56 -9t45 -30.5t30 -57.5t11 -90v-260q0 -14 1.5 -21.5t5.5 -11t12 -5t21 -2.5l27 -2v-32h-271v32l19 2q13 1 20.5 2.5t11 5.5t4.5 11t1 21v232q0 39 -5 63.5 t-14 39t-21.5 19.5t-27.5 5t-29 -5.5t-25 -19.5t-17.5 -39t-6.5 -64v-231q0 -14 1 -21t4.5 -11t11 -5.5t20.5 -2.5l19 -2v-32h-271v32zM175 810l141 -86l141 86h29l-164 -201h-12l-164 201h29z"></glyph><glyph glyph-name="uni0146" unicode="ņ" d="M30 32l27 2q13 1 21 2.5t12 5t5.5 11t1.5 21.5v283l-76 72v6l224 94v-128q17 55 54.5 87.5t97.5 32.5q30 0 56 -9t45 -30.5t30 -57.5t11 -90v-260q0 -14 1.5 -21.5t5.5 -11t12 -5t21 -2.5l27 -2v-32h-271v32l19 2q13 1 20.5 2.5t11 5.5t4.5 11t1 21v232q0 39 -5 63.5 t-14 39t-21.5 19.5t-27.5 5t-29 -5.5t-25 -19.5t-17.5 -39t-6.5 -64v-231q0 -14 1 -21t4.5 -11t11 -5.5t20.5 -2.5l19 -2v-32h-271v32zM229 -350q40 20 65.5 44t25.5 58q0 38 -24.5 56.5t-65.5 25.5q-2 38 18.5 59t56.5 21q23 0 42.5 -9t33.5 -24.5t22 -35.5t8 -42 q0 -32 -15 -59.5t-39 -50t-54 -40.5t-60 -31z"></glyph><glyph glyph-name="oe" unicode="œ" d="M730 87q25 0 50.5 7t48 21t39.5 36.5t25 54.5h29q-17 -110 -84.5 -164.5t-174.5 -54.5q-65 0 -115 22t-85 60q-29 -38 -71 -60t-96 -22q-59 0 -107.5 21t-84 56.5t-55 83t-19.5 101.5q0 60 21.5 110t58.5 86t86 56t104 20q59 0 100.5 -23.5t69.5 -61.5q38 42 87.5 63.5 t102.5 21.5q95 0 159.5 -52t84.5 -155h-355q1 -49 13 -90.5t35.5 -72t56.5 -47.5t76 -17zM654 485q-43 0 -70 -33t-33 -96h189q-2 70 -25 99.5t-61 29.5zM298 31q23 0 42 11t32 36.5t20 68.5t7 108q0 64 -7 107.5t-20 69t-32 36.5t-42 11q-24 0 -43 -11t-32.5 -36.5 t-20.5 -69t-7 -107.5q0 -65 7 -108t20.5 -68.5t32.5 -36.5t43 -11z"></glyph><glyph glyph-name="obreve" unicode="ŏ" d="M306 -13q-62 0 -113 21t-87 56.5t-56 83t-20 101.5q0 60 22 110t59.5 86t88.5 56t110 20q62 0 113 -21t87 -56.5t56 -83t20 -101.5q0 -60 -22 -110t-59.5 -86t-89 -56t-109.5 -20zM308 28q23 0 43.5 11.5t35.5 37.5t23.5 69.5t8.5 108.5q0 64 -8.5 108t-23.5 70 t-35.5 37.5t-43.5 11.5q-24 0 -44.5 -11.5t-36 -37.5t-24 -70t-8.5 -108q0 -65 8.5 -108.5t24 -69.5t36 -37.5t44.5 -11.5zM309 628q-18 0 -43.5 5.5t-50.5 22t-44.5 48t-24.5 84.5h58q7 -52 36 -79t69 -27t69 27t36 79h58q-5 -53 -24.5 -84.5t-44.5 -48t-50.5 -22 t-43.5 -5.5z"></glyph><glyph glyph-name="ohungarumlaut" unicode="ő" d="M306 -13q-62 0 -113 21t-87 56.5t-56 83t-20 101.5q0 60 22 110t59.5 86t88.5 56t110 20q62 0 113 -21t87 -56.5t56 -83t20 -101.5q0 -60 -22 -110t-59.5 -86t-89 -56t-109.5 -20zM308 28q23 0 43.5 11.5t35.5 37.5t23.5 69.5t8.5 108.5q0 64 -8.5 108t-23.5 70 t-35.5 37.5t-43.5 11.5q-24 0 -44.5 -11.5t-36 -37.5t-24 -70t-8.5 -108q0 -65 8.5 -108.5t24 -69.5t36 -37.5t44.5 -11.5zM318 788h148v-11l-230 -168h-28zM497 788h148v-11l-230 -168h-28z"></glyph><glyph glyph-name="omacron" unicode="ō" d="M306 -13q-62 0 -113 21t-87 56.5t-56 83t-20 101.5q0 60 22 110t59.5 86t88.5 56t110 20q62 0 113 -21t87 -56.5t56 -83t20 -101.5q0 -60 -22 -110t-59.5 -86t-89 -56t-109.5 -20zM308 28q23 0 43.5 11.5t35.5 37.5t23.5 69.5t8.5 108.5q0 64 -8.5 108t-23.5 70 t-35.5 37.5t-43.5 11.5q-24 0 -44.5 -11.5t-36 -37.5t-24 -70t-8.5 -108q0 -65 8.5 -108.5t24 -69.5t36 -37.5t44.5 -11.5zM152 737h314v-68h-314v68z"></glyph><glyph glyph-name="uni1ECD" unicode="ọ" d="M306 -13q-62 0 -113 21t-87 56.5t-56 83t-20 101.5q0 60 22 110t59.5 86t88.5 56t110 20q62 0 113 -21t87 -56.5t56 -83t20 -101.5q0 -60 -22 -110t-59.5 -86t-89 -56t-109.5 -20zM308 28q23 0 43.5 11.5t35.5 37.5t23.5 69.5t8.5 108.5q0 64 -8.5 108t-23.5 70 t-35.5 37.5t-43.5 11.5q-24 0 -44.5 -11.5t-36 -37.5t-24 -70t-8.5 -108q0 -65 8.5 -108.5t24 -69.5t36 -37.5t44.5 -11.5zM307 -237q-29 0 -48.5 20t-19.5 49q0 30 19.5 49.5t48.5 19.5t48.5 -19.5t19.5 -49.5q0 -29 -19.5 -49t-48.5 -20z"></glyph><glyph glyph-name="racute" unicode="ŕ" d="M30 32l27 2q13 1 21 2.5t12 5t5.5 11t1.5 21.5v283l-76 72v6l224 94v-173q10 44 27.5 74t40 49t49.5 27t57 8h10v-149l-53 7q-39 5 -64.5 3t-40 -10.5t-20.5 -21.5t-6 -30v-239q0 -27 10 -32t36 -6l51 -3v-33h-312v32zM372 788h148v-11l-230 -168h-28z"></glyph><glyph glyph-name="rcaron" unicode="ř" d="M30 32l27 2q13 1 21 2.5t12 5t5.5 11t1.5 21.5v283l-76 72v6l224 94v-173q10 44 27.5 74t40 49t49.5 27t57 8h10v-149l-53 7q-39 5 -64.5 3t-40 -10.5t-20.5 -21.5t-6 -30v-239q0 -27 10 -32t36 -6l51 -3v-33h-312v32zM153 810l141 -86l141 86h29l-164 -201h-12l-164 201 h29z"></glyph><glyph glyph-name="uni0157" unicode="ŗ" d="M30 32l27 2q13 1 21 2.5t12 5t5.5 11t1.5 21.5v283l-76 72v6l224 94v-173q10 44 27.5 74t40 49t49.5 27t57 8h10v-149l-53 7q-39 5 -64.5 3t-40 -10.5t-20.5 -21.5t-6 -30v-239q0 -27 10 -32t36 -6l51 -3v-33h-312v32zM76 -350q40 20 65.5 44t25.5 58q0 38 -24.5 56.5 t-65.5 25.5q-2 38 18.5 59t56.5 21q23 0 42.5 -9t33.5 -24.5t22 -35.5t8 -42q0 -32 -15 -59.5t-39 -50t-54 -40.5t-60 -31z"></glyph><glyph glyph-name="sacute" unicode="ś" d="M209 -13q-37 0 -71.5 5.5t-74.5 18.5l-16 178h22l76 -124q10 -17 20 -25t20 -11.5t20 -3.5h21q35 0 60.5 19t25.5 54q0 30 -18 52t-59 31l-53 12q-61 14 -97.5 55.5t-36.5 107.5q0 40 18 70.5t48 51.5t68.5 32t80.5 11q32 0 68 -4.5t66 -15.5l19 -170h-22l-85 122 q-16 23 -31 27.5t-35 4.5q-35 0 -58 -19t-23 -54q0 -32 19.5 -54t57.5 -30l43 -9q81 -17 117.5 -59.5t36.5 -100.5q0 -38 -17 -69.5t-47.5 -54.5t-72 -35.5t-90.5 -12.5zM316 788h148v-11l-230 -168h-28z"></glyph><glyph glyph-name="scaron" unicode="š" d="M209 -13q-37 0 -71.5 5.5t-74.5 18.5l-16 178h22l76 -124q10 -17 20 -25t20 -11.5t20 -3.5h21q35 0 60.5 19t25.5 54q0 30 -18 52t-59 31l-53 12q-61 14 -97.5 55.5t-36.5 107.5q0 40 18 70.5t48 51.5t68.5 32t80.5 11q32 0 68 -4.5t66 -15.5l19 -170h-22l-85 122 q-16 23 -31 27.5t-35 4.5q-35 0 -58 -19t-23 -54q0 -32 19.5 -54t57.5 -30l43 -9q81 -17 117.5 -59.5t36.5 -100.5q0 -38 -17 -69.5t-47.5 -54.5t-72 -35.5t-90.5 -12.5zM97 810l141 -86l141 86h29l-164 -201h-12l-164 201h29z"></glyph><glyph glyph-name="scedilla" unicode="ş" d="M209 -13q-37 0 -71.5 5.5t-74.5 18.5l-16 178h22l76 -124q10 -17 20 -25t20 -11.5t20 -3.5h21q35 0 60.5 19t25.5 54q0 30 -18 52t-59 31l-53 12q-61 14 -97.5 55.5t-36.5 107.5q0 40 18 70.5t48 51.5t68.5 32t80.5 11q32 0 68 -4.5t66 -15.5l19 -170h-22l-85 122 q-16 23 -31 27.5t-35 4.5q-35 0 -58 -19t-23 -54q0 -32 19.5 -54t57.5 -30l43 -9q81 -17 117.5 -59.5t36.5 -100.5q0 -38 -17 -69.5t-47.5 -54.5t-72 -35.5t-90.5 -12.5zM160 -265q-15 0 -31 3t-28.5 9.5t-20.5 16t-8 23.5q0 17 14 28.5t40 6.5q0 -26 17 -40.5t40 -14.5 q18 0 29.5 8.5t11.5 21.5q0 19 -33.5 39t-82.5 42l119 127h44l-75 -80q42 -22 61.5 -42.5t19.5 -54.5q0 -17 -7.5 -34t-22.5 -30t-37 -21t-50 -8z"></glyph><glyph glyph-name="scircumflex" unicode="ŝ" d="M209 -13q-37 0 -71.5 5.5t-74.5 18.5l-16 178h22l76 -124q10 -17 20 -25t20 -11.5t20 -3.5h21q35 0 60.5 19t25.5 54q0 30 -18 52t-59 31l-53 12q-61 14 -97.5 55.5t-36.5 107.5q0 40 18 70.5t48 51.5t68.5 32t80.5 11q32 0 68 -4.5t66 -15.5l19 -170h-22l-85 122 q-16 23 -31 27.5t-35 4.5q-35 0 -58 -19t-23 -54q0 -32 19.5 -54t57.5 -30l43 -9q81 -17 117.5 -59.5t36.5 -100.5q0 -38 -17 -69.5t-47.5 -54.5t-72 -35.5t-90.5 -12.5zM232 810h12l164 -201h-29l-141 86l-141 -86h-29z"></glyph><glyph glyph-name="uni0219" unicode="ș" d="M209 -13q-37 0 -71.5 5.5t-74.5 18.5l-16 178h22l76 -124q10 -17 20 -25t20 -11.5t20 -3.5h21q35 0 60.5 19t25.5 54q0 30 -18 52t-59 31l-53 12q-61 14 -97.5 55.5t-36.5 107.5q0 40 18 70.5t48 51.5t68.5 32t80.5 11q32 0 68 -4.5t66 -15.5l19 -170h-22l-85 122 q-16 23 -31 27.5t-35 4.5q-35 0 -58 -19t-23 -54q0 -32 19.5 -54t57.5 -30l43 -9q81 -17 117.5 -59.5t36.5 -100.5q0 -38 -17 -69.5t-47.5 -54.5t-72 -35.5t-90.5 -12.5zM155 -350q40 20 65.5 44t25.5 58q0 38 -24.5 56.5t-65.5 25.5q-2 38 18.5 59t56.5 21q23 0 42.5 -9 t33.5 -24.5t22 -35.5t8 -42q0 -32 -15 -59.5t-39 -50t-54 -40.5t-60 -31z"></glyph><glyph glyph-name="tbar" unicode="ŧ" d="M251 -7q-30 0 -54.5 5t-42 18.5t-27 38t-9.5 64.5v306h-101v6l242 200h7v-129h200l-48 -77h-152v-272q0 -56 18 -76t52 -20q23 0 43 8.5t38 20.5l16 -26q-15 -12 -35 -24t-43.5 -21.5t-50 -15.5t-53.5 -6zM41 351h377v-51h-377v51z"></glyph><glyph glyph-name="tcaron" unicode="ť" d="M231 -7q-30 0 -54.5 5t-42 18.5t-27 38t-9.5 64.5v306h-101v6l242 200h7v-129h200l-48 -77h-152v-272q0 -56 18 -76t52 -20q23 0 43 8.5t38 20.5l16 -26q-15 -12 -35 -24t-43.5 -21.5t-50 -15.5t-53.5 -6zM327 613q40 20 65.5 44t25.5 58q0 38 -24.5 56.5t-65.5 25.5 q-2 38 18.5 59t56.5 21q23 0 42.5 -9t33.5 -24.5t22 -35.5t8 -42q0 -32 -15 -59.5t-39 -50t-54 -40.5t-60 -31z"></glyph><glyph glyph-name="uni0163" unicode="ţ" d="M231 -7q-30 0 -54.5 5t-42 18.5t-27 38t-9.5 64.5v306h-101v6l242 200h7v-129h200l-48 -77h-152v-272q0 -56 18 -76t52 -20q23 0 43 8.5t38 20.5l16 -26q-15 -12 -35 -24t-43.5 -21.5t-50 -15.5t-53.5 -6zM119 -350q40 20 65.5 44t25.5 58q0 38 -24.5 56.5t-65.5 25.5 q-2 38 18.5 59t56.5 21q23 0 42.5 -9t33.5 -24.5t22 -35.5t8 -42q0 -32 -15 -59.5t-39 -50t-54 -40.5t-60 -31z"></glyph><glyph glyph-name="uni021B" unicode="ț" d="M231 -7q-30 0 -54.5 5t-42 18.5t-27 38t-9.5 64.5v306h-101v6l242 200h7v-129h200l-48 -77h-152v-272q0 -56 18 -76t52 -20q23 0 43 8.5t38 20.5l16 -26q-15 -12 -35 -24t-43.5 -21.5t-50 -15.5t-53.5 -6zM119 -350q40 20 65.5 44t25.5 58q0 38 -24.5 56.5t-65.5 25.5 q-2 38 18.5 59t56.5 21q23 0 42.5 -9t33.5 -24.5t22 -35.5t8 -42q0 -32 -15 -59.5t-39 -50t-54 -40.5t-60 -31z"></glyph><glyph glyph-name="ubreve" unicode="ŭ" d="M224 -13q-30 0 -56 9t-45 30.5t-30 57.5t-11 90v271l-65 25v32h213v-300q0 -39 5 -63.5t14 -39t21.5 -19.5t27.5 -5t29 5.5t25 19.5t17.5 39t6.5 64v242l-65 25v32h213v-436h73v-32l-221 -45v118q-17 -55 -54.5 -87.5t-97.5 -32.5zM300 628q-18 0 -43.5 5.5t-50.5 22 t-44.5 48t-24.5 84.5h58q7 -52 36 -79t69 -27t69 27t36 79h58q-5 -53 -24.5 -84.5t-44.5 -48t-50.5 -22t-43.5 -5.5z"></glyph><glyph glyph-name="uhungarumlaut" unicode="ű" d="M224 -13q-30 0 -56 9t-45 30.5t-30 57.5t-11 90v271l-65 25v32h213v-300q0 -39 5 -63.5t14 -39t21.5 -19.5t27.5 -5t29 5.5t25 19.5t17.5 39t6.5 64v242l-65 25v32h213v-436h73v-32l-221 -45v118q-17 -55 -54.5 -87.5t-97.5 -32.5zM309 788h148v-11l-230 -168h-28z M488 788h148v-11l-230 -168h-28z"></glyph><glyph glyph-name="umacron" unicode="ū" d="M224 -13q-30 0 -56 9t-45 30.5t-30 57.5t-11 90v271l-65 25v32h213v-300q0 -39 5 -63.5t14 -39t21.5 -19.5t27.5 -5t29 5.5t25 19.5t17.5 39t6.5 64v242l-65 25v32h213v-436h73v-32l-221 -45v118q-17 -55 -54.5 -87.5t-97.5 -32.5zM143 737h314v-68h-314v68z"></glyph><glyph glyph-name="uogonek" unicode="ų" d="M224 -13q-30 0 -56 9t-45 30.5t-30 57.5t-11 90v271l-65 25v32h213v-300q0 -39 5 -63.5t14 -39t21.5 -19.5t27.5 -5t29 5.5t25 19.5t17.5 39t6.5 64v242l-65 25v32h213v-436h73v-32l-194 -39q-21 -24 -36.5 -52.5t-15.5 -58.5t20.5 -43.5t51.5 -13.5q22 0 48 6v-31 q-17 -8 -45 -17.5t-57 -9.5q-21 0 -41 5.5t-35 16.5t-24.5 26.5t-9.5 36.5q0 19 10.5 38t27 37.5t37.5 35t42 30.5v106q-17 -55 -54.5 -87.5t-97.5 -32.5z"></glyph><glyph glyph-name="uring" unicode="ů" d="M224 -13q-30 0 -56 9t-45 30.5t-30 57.5t-11 90v271l-65 25v32h213v-300q0 -39 5 -63.5t14 -39t21.5 -19.5t27.5 -5t29 5.5t25 19.5t17.5 39t6.5 64v242l-65 25v32h213v-436h73v-32l-221 -45v118q-17 -55 -54.5 -87.5t-97.5 -32.5zM300 585q-26 0 -48.5 9.5t-39 25.5 t-26.5 38t-10 47t10 47t26.5 38.5t39 26t48.5 9.5q27 0 50 -9.5t40 -26t27 -38.5t10 -47t-10 -47t-27 -38t-40 -25.5t-50 -9.5zM300 638q32 0 49 18t17 49t-17 48.5t-49 17.5q-30 0 -47.5 -17.5t-17.5 -48.5t17.5 -49t47.5 -18z"></glyph><glyph glyph-name="utilde" unicode="ũ" d="M224 -13q-30 0 -56 9t-45 30.5t-30 57.5t-11 90v271l-65 25v32h213v-300q0 -39 5 -63.5t14 -39t21.5 -19.5t27.5 -5t29 5.5t25 19.5t17.5 39t6.5 64v242l-65 25v32h213v-436h73v-32l-221 -45v118q-17 -55 -54.5 -87.5t-97.5 -32.5zM373 645q-25 0 -45.5 9t-38.5 20 t-35.5 20t-37.5 9q-24 0 -39 -14t-17 -40h-21q0 27 5.5 53.5t17 47t29.5 33.5t44 13q21 0 41 -9t38.5 -20t36.5 -20t35 -9q23 0 37.5 12t16.5 38h21q0 -41 -8 -68t-20 -44t-28 -24t-32 -7z"></glyph><glyph glyph-name="uni1EE5" unicode="ụ" d="M224 -13q-30 0 -56 9t-45 30.5t-30 57.5t-11 90v271l-65 25v32h213v-300q0 -39 5 -63.5t14 -39t21.5 -19.5t27.5 -5t29 5.5t25 19.5t17.5 39t6.5 64v242l-65 25v32h213v-436h73v-32l-221 -45v118q-17 -55 -54.5 -87.5t-97.5 -32.5zM309 -237q-29 0 -48.5 20t-19.5 49 q0 30 19.5 49.5t48.5 19.5t48.5 -19.5t19.5 -49.5q0 -29 -19.5 -49t-48.5 -20z"></glyph><glyph glyph-name="wacute" unicode="ẃ" d="M66 413q-12 28 -22.5 40t-36.5 15l-16 2v32h286v-32l-21 -2q-52 -4 -32 -49l108 -242l75 170l-68 155h250v-32l-21 -2q-52 -4 -32 -49l108 -241l92 213q17 41 8 57t-35 19l-28 3v32h199v-32l-20 -2q-27 -3 -40.5 -15.5t-27.5 -44.5l-186 -420h-40l-136 307l-136 -307h-40 zM513 788h148v-11l-230 -168h-28z"></glyph><glyph glyph-name="wcircumflex" unicode="ŵ" d="M66 413q-12 28 -22.5 40t-36.5 15l-16 2v32h286v-32l-21 -2q-52 -4 -32 -49l108 -242l75 170l-68 155h250v-32l-21 -2q-52 -4 -32 -49l108 -241l92 213q17 41 8 57t-35 19l-28 3v32h199v-32l-20 -2q-27 -3 -40.5 -15.5t-27.5 -44.5l-186 -420h-40l-136 307l-136 -307h-40 zM429 810h12l164 -201h-29l-141 86l-141 -86h-29z"></glyph><glyph glyph-name="wdieresis" unicode="ẅ" d="M66 413q-12 28 -22.5 40t-36.5 15l-16 2v32h286v-32l-21 -2q-52 -4 -32 -49l108 -242l75 170l-68 155h250v-32l-21 -2q-52 -4 -32 -49l108 -241l92 213q17 41 8 57t-35 19l-28 3v32h199v-32l-20 -2q-27 -3 -40.5 -15.5t-27.5 -44.5l-186 -420h-40l-136 307l-136 -307h-40 zM548 636q-29 0 -48.5 20t-19.5 49q0 30 19.5 49.5t48.5 19.5t48.5 -19.5t19.5 -49.5q0 -29 -19.5 -49t-48.5 -20zM322 636q-29 0 -48.5 20t-19.5 49q0 30 19.5 49.5t48.5 19.5t48.5 -19.5t19.5 -49.5q0 -29 -19.5 -49t-48.5 -20z"></glyph><glyph glyph-name="wgrave" unicode="ẁ" d="M66 413q-12 28 -22.5 40t-36.5 15l-16 2v32h286v-32l-21 -2q-52 -4 -32 -49l108 -242l75 170l-68 155h250v-32l-21 -2q-52 -4 -32 -49l108 -241l92 213q17 41 8 57t-35 19l-28 3v32h199v-32l-20 -2q-27 -3 -40.5 -15.5t-27.5 -44.5l-186 -420h-40l-136 307l-136 -307h-40 zM439 609l-230 168v11h148l110 -179h-28z"></glyph><glyph glyph-name="ycircumflex" unicode="ŷ" d="M248 -5l-179 418q-12 28 -22.5 40t-36.5 15l-16 2v32h286v-32l-21 -2q-51 -4 -32 -49l102 -247l99 219q18 41 8.5 57t-35.5 19l-28 3v32h198v-32l-20 -2q-27 -3 -40.5 -15.5t-27.5 -44.5l-248 -542q-29 -63 -56.5 -92t-69.5 -29q-33 0 -52 22t-19 53q0 21 12 40t34 31.5 t54 18.5t72 2zM310 810h12l164 -201h-29l-141 86l-141 -86h-29z"></glyph><glyph glyph-name="ygrave" unicode="ỳ" d="M248 -5l-179 418q-12 28 -22.5 40t-36.5 15l-16 2v32h286v-32l-21 -2q-51 -4 -32 -49l102 -247l99 219q18 41 8.5 57t-35.5 19l-28 3v32h198v-32l-20 -2q-27 -3 -40.5 -15.5t-27.5 -44.5l-248 -542q-29 -63 -56.5 -92t-69.5 -29q-33 0 -52 22t-19 53q0 21 12 40t34 31.5 t54 18.5t72 2zM320 609l-230 168v11h148l110 -179h-28z"></glyph><glyph glyph-name="uni0233" unicode="ȳ" d="M248 -5l-179 418q-12 28 -22.5 40t-36.5 15l-16 2v32h286v-32l-21 -2q-51 -4 -32 -49l102 -247l99 219q18 41 8.5 57t-35.5 19l-28 3v32h198v-32l-20 -2q-27 -3 -40.5 -15.5t-27.5 -44.5l-248 -542q-29 -63 -56.5 -92t-69.5 -29q-33 0 -52 22t-19 53q0 21 12 40t34 31.5 t54 18.5t72 2zM159 737h314v-68h-314v68z"></glyph><glyph glyph-name="zacute" unicode="ź" d="M323 462h-110q-22 0 -34.5 -5t-23.5 -21l-101 -152h-22l41 218h443l-301 -462h101q23 0 35.5 5.5t28.5 24.5l128 155h22l-67 -225h-442zM364 788h148v-11l-230 -168h-28z"></glyph><glyph glyph-name="zcaron" unicode="ž" d="M323 462h-110q-22 0 -34.5 -5t-23.5 -21l-101 -152h-22l41 218h443l-301 -462h101q23 0 35.5 5.5t28.5 24.5l128 155h22l-67 -225h-442zM145 810l141 -86l141 86h29l-164 -201h-12l-164 201h29z"></glyph><glyph glyph-name="zdotaccent" unicode="ż" d="M323 462h-110q-22 0 -34.5 -5t-23.5 -21l-101 -152h-22l41 218h443l-301 -462h101q23 0 35.5 5.5t28.5 24.5l128 155h22l-67 -225h-442zM286 636q-29 0 -48.5 20t-19.5 49q0 30 19.5 49.5t48.5 19.5t48.5 -19.5t19.5 -49.5q0 -29 -19.5 -49t-48.5 -20z"></glyph><glyph glyph-name="uni0259" unicode="ə" d="M290.982 520.968q61.9961 0 110.993 -20.498q48.9971 -20.499 82.9951 -55.4971t51.9961 -82.9951q17.999 -47.9971 17.999 -103.993q0 -61.9961 -22.498 -111.993q-22.499 -49.9971 -58.9971 -85.4951q-36.4971 -35.498 -83.4941 -54.4961 q-46.9971 -18.999 -95.9941 -18.999q-94.9941 0 -159.49 50.9971q-64.4961 50.9961 -84.4951 153.99h354.979q0 48.9971 -12.999 91.4941q-13 42.498 -36.998 73.9961q-23.999 31.498 -57.9971 49.4971q-33.9971 17.998 -76.9951 17.998q-24.998 0 -49.9971 -7.49902 q-24.998 -7.5 -46.4971 -22.499q-21.498 -14.999 -37.9971 -37.9971q-16.499 -22.999 -24.499 -54.9971h-28.998q16.999 109.993 84.4951 164.49q67.4951 54.4961 174.489 54.4961zM299.981 20.999q41.998 0 68.9961 33.498q26.998 33.4971 33.998 95.4941h-188.988 q1.99902 -69.9961 24.998 -99.4941t60.9961 -29.498z"></glyph><glyph glyph-name="uni0410" unicode="А" d="M689 85q11 -26 24.5 -34t39.5 -11l33 -4v-36h-344v36l43 4q26 2 35.5 10.5t-1.5 34.5l-64 162h-257l-65 -162q-11 -26 -1.5 -34.5t35.5 -10.5l43 -4v-36h-231v36l33 4q26 3 39.5 11t24.5 34l297 723h20zM222 306h209l-104 262z"></glyph><glyph glyph-name="uni0411" unicode="Б" d="M295 712v-285h48q192 0 290 -47.5t98 -154.5q0 -103 -94.5 -164t-293.5 -61h-297v36l45 4q26 2 35 11t9 38v580q0 29 -9 38t-35 11l-45 4v36h580l34 -256h-22l-140 192q-9 12 -15 15t-22 3h-166zM317 46q124 0 180.5 40.5t56.5 130.5q0 48 -14 79.5t-42.5 51t-70.5 27.5 t-98 8h-34v-337h22z"></glyph><glyph glyph-name="uni0412" unicode="В" d="M46 36l45 4q26 2 35 11t9 38v580q0 29 -9 38t-35 11l-45 4v36h331q141 0 217.5 -40t76.5 -128q0 -73 -57.5 -121.5t-166.5 -62.5v-2q66 0 118 -11.5t89 -34t56.5 -56t19.5 -78.5q0 -53 -23 -94.5t-65 -70t-101 -44t-131 -15.5h-364v36zM364 424q77 0 108 39t31 107 q0 34 -7 60.5t-23.5 45t-43 28.5t-64.5 10h-70v-290h69zM370 44q43 0 77 8t57.5 27.5t36 51.5t12.5 80t-12.5 80t-36 52t-57.5 28.5t-77 8.5h-75v-336h75z"></glyph><glyph glyph-name="uni0413" unicode="Г" d="M295 89q0 -29 9 -37t35 -10l80 -4v-38h-373v36l45 4q26 2 35 11t9 38v580q0 29 -9 38t-35 11l-45 4v36h598l37 -271h-22l-143 207q-8 12 -14.5 15t-22.5 3h-184v-623z"></glyph><glyph glyph-name="uni0414" unicode="Д" d="M37 -179h-22l8 225h85q28 69 47.5 153t30.5 168.5t16 163t5 138.5q0 29 -9 38t-35 11l-45 4v36h617v-36l-45 -4q-26 -2 -35 -11t-9 -38v-623h104l8 -225h-22l-110 167q-5 7 -10 9.5t-16 2.5h-427q-12 0 -16.5 -2.5t-9.5 -9.5zM486 712h-222q0 -72 -5 -158.5t-16 -175.5 t-29.5 -175t-46.5 -157h319v666z"></glyph><glyph glyph-name="uni0415" unicode="Е" d="M46 36l45 4q26 2 35 11t9 38v580q0 29 -9 38t-35 11l-45 4v36h596l37 -271h-22l-143 207q-8 12 -14.5 15t-22.5 3h-182v-293h116q13 0 17 11l48 131h22v-336h-22l-48 131q-4 11 -17 11h-116v-321h227q14 0 18.5 2.5t12.5 11.5l184 211h22l-75 -271h-638v36z"></glyph><glyph glyph-name="uni0401" unicode="Ё" d="M42 36l45 4q26 2 35 11t9 38v580q0 29 -9 38t-35 11l-45 4v36h596l37 -271h-22l-143 207q-8 12 -14.5 15t-22.5 3h-182v-293h116q13 0 17 11l48 131h22v-336h-22l-48 131q-4 11 -17 11h-116v-321h227q14 0 18.5 2.5t12.5 11.5l184 211h22l-75 -271h-638v36zM281 837 q-30 0 -50 20.5t-20 50.5q0 31 20 51t50 20q29 0 49.5 -20t20.5 -51q0 -30 -20.5 -50.5t-49.5 -20.5zM507 837q-30 0 -50 20.5t-20 50.5q0 31 20 51t50 20q29 0 49.5 -20t20.5 -51q0 -30 -20.5 -50.5t-49.5 -20.5z"></glyph><glyph glyph-name="uni0416" unicode="Ж" d="M-20 0l358 446l-217 237q-17 18 -34 26t-51 10l-51 3v36h288v-36l-63 -4q-23 -2 -27 -10.5t6 -19.5l286 -313v294q0 29 -9 38t-35 11l-45 4v36h338v-36l-45 -4q-26 -2 -35 -11t-9 -38v-294l286 313q10 11 6 19.5t-27 10.5l-63 4v36h288v-36l-51 -3q-34 -2 -52.5 -10 t-35.5 -26l-210 -230l364 -453h-211l-294 366v-277q0 -29 9 -38t35 -11l45 -4v-36h-338v36l45 4q26 2 35 11t9 38v277l-294 -366h-201z"></glyph><glyph glyph-name="uni0417" unicode="З" d="M312 33q68 0 110 38t42 125q0 52 -12 87t-35 56.5t-56 31t-75 9.5h-73v44h67q80 0 112 42t32 114t-29 112t-88 40q-17 0 -32 -3q-10 -2 -16 -5.5t-18 -20.5l-140 -186h-22l48 235q35 14 79 20.5t108 6.5q60 0 110.5 -10.5t88 -32t58.5 -55.5t21 -81q0 -77 -60 -128.5 t-169 -65.5v-2q57 0 107.5 -12.5t88.5 -37t60 -61t22 -84.5q0 -53 -24 -94t-68 -69.5t-105.5 -43.5t-136.5 -15q-52 0 -108 8t-107 29l-47 246h22l140 -196q14 -20 24.5 -26t22.5 -9q27 -6 58 -6z"></glyph><glyph glyph-name="uni0418" unicode="И" d="M46 36l45 4q26 2 35 11t9 38v580q0 29 -9 38t-35 11l-45 4v36h338v-36l-45 -4q-26 -2 -35 -11t-9 -38v-462l331 440v22q0 29 -9 38t-35 11l-45 4v36h338v-36l-45 -4q-26 -2 -35 -11t-9 -38v-580q0 -29 9 -38t35 -11l45 -4v-36h-338v36l45 4q26 2 35 11t9 38v469 l-331 -440v-29q0 -29 9 -38t35 -11l45 -4v-36h-338v36z"></glyph><glyph glyph-name="uni0419" unicode="Й" d="M46 36l45 4q26 2 35 11t9 38v580q0 29 -9 38t-35 11l-45 4v36h338v-36l-45 -4q-26 -2 -35 -11t-9 -38v-462l331 440v22q0 29 -9 38t-35 11l-45 4v36h338v-36l-45 -4q-26 -2 -35 -11t-9 -38v-580q0 -29 9 -38t35 -11l45 -4v-36h-338v36l45 4q26 2 35 11t9 38v469 l-331 -440v-29q0 -29 9 -38t35 -11l45 -4v-36h-338v36zM461 827q-47 0 -81 13t-56 35.5t-32.5 51t-10.5 60.5h113q0 -40 6.5 -65t16 -38.5t21.5 -18t23 -4.5t23 4.5t21.5 18t16 38.5t6.5 65h113q0 -35 -13 -64.5t-37 -50.5t-57 -33t-73 -12z"></glyph><glyph glyph-name="uni041A" unicode="К" d="M46 36l45 4q26 2 35 11t9 38v580q0 29 -9 38t-35 11l-45 4v36h338v-36l-45 -4q-26 -2 -35 -11t-9 -38v-294l306 313q11 11 6.5 19.5t-27.5 10.5l-73 4v36h298v-36l-51 -3q-34 -2 -52.5 -10.5t-35.5 -25.5l-226 -231l412 -452h-223l-334 367v-278q0 -29 9 -38t35 -11 l45 -4v-36h-338v36z"></glyph><glyph glyph-name="uni041B" unicode="Л" d="M195 84q-24 -51 -52 -73.5t-60 -22.5q-34 0 -51 19t-17 42q0 42 35.5 69.5t111.5 38.5q18 49 29.5 103t18 116.5t9 135t2.5 157.5q0 29 -9 38t-35 11l-45 4v36h622v-36l-45 -4q-26 -2 -35 -11t-9 -38v-580q0 -29 9 -38t35 -11l45 -4v-36h-338v36l45 4q26 2 35 11t9 38 v623h-227q0 -110 -3.5 -201t-12.5 -168t-25.5 -141t-41.5 -118z"></glyph><glyph glyph-name="uni041C" unicode="М" d="M22 36l45 4q26 2 34 11t10 38l40 580q2 29 -8 38t-36 11l-45 4v36h295l172 -393l165 393h279v-36l-45 -4q-26 -2 -36 -11t-8 -38l40 -580q2 -29 10 -38t34 -11l45 -4v-36h-338v36l45 4q26 2 36 11t8 38l-40 609l-252 -589h-6l-259 586l-40 -606q-2 -29 8 -38t36 -11 l45 -4v-36h-234v36z"></glyph><glyph glyph-name="uni041D" unicode="Н" d="M46 36l45 4q26 2 35 11t9 38v580q0 29 -9 38t-35 11l-45 4v36h338v-36l-45 -4q-26 -2 -35 -11t-9 -38v-242h321v242q0 29 -9 38t-35 11l-45 4v36h338v-36l-45 -4q-26 -2 -35 -11t-9 -38v-580q0 -29 9 -38t35 -11l45 -4v-36h-338v36l45 4q26 2 35 11t9 38v279h-321v-279 q0 -29 9 -38t35 -11l45 -4v-36h-338v36z"></glyph><glyph glyph-name="uni041E" unicode="О" d="M450 -13q-80 0 -154 26.5t-131 77.5t-91 124.5t-34 167.5t34 167.5t91 124.5t131 77.5t154 26.5t154 -26.5t131 -77.5t91 -124.5t34 -167.5t-34 -167.5t-91 -124.5t-131 -77.5t-154 -26.5zM450 35q108 0 170 88.5t62 259.5t-62 259.5t-170 88.5t-170 -88.5t-62 -259.5 t62 -259.5t170 -88.5z"></glyph><glyph glyph-name="uni041F" unicode="П" d="M855 758v-36l-45 -4q-26 -2 -35 -11t-9 -38v-580q0 -29 9 -38t35 -11l45 -4v-36h-338v36l45 4q26 2 35 11t9 38v623h-311v-623q0 -29 9 -38t35 -11l45 -4v-36h-338v36l45 4q26 2 35 11t9 38v580q0 29 -9 38t-35 11l-45 4v36h809z"></glyph><glyph glyph-name="uni0420" unicode="Р" d="M46 36l45 4q26 2 35 11t9 38v580q0 29 -9 38t-35 11l-45 4v36h330q71 0 132.5 -9t106.5 -32.5t71 -63t26 -99.5t-26 -101t-71 -66t-106.5 -36t-132.5 -11h-56v45h49q90 0 128 40t38 123t-38 124.5t-128 41.5h-74v-625q0 -29 9 -37t35 -10l80 -4v-38h-373v36z"></glyph><glyph glyph-name="uni0421" unicode="С" d="M481 -13q-99 0 -180.5 28.5t-139 80.5t-89.5 125t-32 162t32 162t91 125t141 80.5t183 28.5q62 0 124 -9.5t107 -25.5l46 -262h-22l-132 192q-17 25 -32 35t-27 15q-11 4 -30.5 6.5t-41.5 2.5q-48 0 -95 -16t-84 -53t-60 -97.5t-23 -150.5q0 -76 16 -145.5t50 -122 t86.5 -84t125.5 -31.5q22 0 41.5 2.5t30.5 6.5q12 5 27 15t32 35l132 192h22l-53 -262q-22 -8 -51.5 -14.5t-62 -11t-66.5 -7t-66 -2.5z"></glyph><glyph glyph-name="uni0422" unicode="Т" d="M197 38l70 4q26 2 35 10t9 37v628h-107q-16 0 -22.5 -2.5t-14.5 -15.5l-128 -212h-22l22 271h704l22 -271h-22l-128 212q-8 13 -14.5 15.5t-22.5 2.5h-107v-628q0 -29 9 -37t35 -10l70 -4v-38h-388v38z"></glyph><glyph glyph-name="uni0423" unicode="У" d="M358 84q-26 -51 -53 -73.5t-59 -22.5q-34 0 -51 18t-17 43q0 42 36.5 69t124.5 28l18 34l-281 493q-14 25 -26 33.5t-38 11.5l-33 4v36h345v-36l-43 -4q-26 -2 -37 -10.5t3 -34.5l190 -335l174 335q14 26 3 34.5t-37 10.5l-43 4v36h242v-36l-33 -4q-19 -2 -31.5 -5.5 t-21.5 -9t-15.5 -13.5t-12.5 -20z"></glyph><glyph glyph-name="uni0424" unicode="Ф" d="M341 16l45 4q26 2 35 11t9 38v34q-86 7 -159.5 28.5t-127 56.5t-83.5 84t-30 110t30 109.5t83.5 83.5t127 56.5t159.5 28.5v29q0 29 -9 38t-35 11l-45 4v36h338v-36l-45 -4q-26 -2 -35 -11t-9 -38v-29q84 -7 155.5 -28.5t123.5 -57t81.5 -83.5t29.5 -109t-29.5 -109.5 t-81.5 -84t-123.5 -57t-155.5 -28.5v-34q0 -29 9 -38t35 -11l45 -4v-36h-338v36zM208 382q0 -103 54.5 -160t167.5 -71v461q-113 -14 -167.5 -70.5t-54.5 -159.5zM802 382q0 101 -51.5 158.5t-160.5 71.5v-461q109 14 160.5 72t51.5 159z"></glyph><glyph glyph-name="uni0425" unicode="Х" d="M-9 36l33 4q26 3 47 13t39 32l227 272l-214 316q-16 23 -32 32.5t-42 12.5l-33 4v36h358v-36l-43 -4q-26 -2 -33 -12t9 -33l131 -194l162 194q19 22 16.5 32.5t-28.5 12.5l-43 4v36h237v-36l-33 -4q-26 -3 -47 -13t-39 -32l-196 -236l238 -352q16 -23 32 -32.5t42 -12.5 l33 -4v-36h-358v36l43 4q26 2 33 12t-9 33l-156 230l-192 -230q-19 -22 -16.5 -32.5t28.5 -12.5l43 -4v-36h-237v36z"></glyph><glyph glyph-name="uni0426" unicode="Ц" d="M46 0v36l45 4q26 2 35 11t9 38v580q0 29 -9 38t-35 11l-45 4v36h338v-36l-45 -4q-26 -2 -35 -11t-9 -38v-623h311v623q0 29 -9 38t-35 11l-45 4v36h338v-36l-45 -4q-26 -2 -35 -11t-9 -38v-623h104l8 -225h-22l-110 167q-5 7 -10 9.5t-16 2.5h-674z"></glyph><glyph glyph-name="uni0427" unicode="Ч" d="M115 669q0 29 -9 38t-35 11l-45 4v36h338v-36l-45 -4q-26 -2 -35 -11t-9 -38v-128q0 -54 13 -88t37.5 -53t59 -25.5t77.5 -6.5q35 0 67.5 4t66.5 14v283q0 29 -9 38t-35 11l-45 4v36h338v-36l-45 -4q-26 -2 -35 -11t-9 -38v-580q0 -29 9 -38t35 -11l45 -4v-36h-338v36 l45 4q26 2 35 11t9 38v238q-54 -12 -100 -15.5t-78 -3.5q-72 0 -128.5 12.5t-95 41.5t-59 76t-20.5 116v115z"></glyph><glyph glyph-name="uni0428" unicode="Ш" d="M46 0v36l45 4q26 2 35 11t9 38v580q0 29 -9 38t-35 11l-45 4v36h338v-36l-45 -4q-26 -2 -35 -11t-9 -38v-623h260v623q0 29 -9 38t-35 11l-45 4v36h338v-36l-45 -4q-26 -2 -35 -11t-9 -38v-623h260v623q0 29 -9 38t-35 11l-45 4v36h338v-36l-45 -4q-26 -2 -35 -11t-9 -38 v-580q0 -29 9 -38t35 -11l45 -4v-36h-1178z"></glyph><glyph glyph-name="uni0429" unicode="Щ" d="M46 0v36l45 4q26 2 35 11t9 38v580q0 29 -9 38t-35 11l-45 4v36h338v-36l-45 -4q-26 -2 -35 -11t-9 -38v-623h260v623q0 29 -9 38t-35 11l-45 4v36h338v-36l-45 -4q-26 -2 -35 -11t-9 -38v-623h260v623q0 29 -9 38t-35 11l-45 4v36h338v-36l-45 -4q-26 -2 -35 -11t-9 -38 v-623h104l8 -225h-22l-110 167q-5 7 -10 9.5t-16 2.5h-1043z"></glyph><glyph glyph-name="uni042A" unicode="Ъ" d="M482 445q183 0 276 -51.5t93 -163.5q0 -105 -93 -167.5t-276 -62.5h-316v36l45 4q26 2 35 11t9 38v628h-51q-16 0 -22.5 -2.5t-14.5 -15.5l-128 -212h-22l22 271h485v-36l-65 -4q-26 -2 -35 -11t-9 -38v-224h67zM450 46q115 0 169.5 41t54.5 135q0 97 -53 137t-159 40 h-47v-353h35z"></glyph><glyph glyph-name="uni042B" unicode="Ы" d="M362 445q183 0 276 -51.5t93 -163.5q0 -105 -93 -167.5t-276 -62.5h-316v36l45 4q26 2 35 11t9 38v580q0 29 -9 38t-35 11l-45 4v36h358v-36l-65 -4q-26 -2 -35 -11t-9 -38v-224h67zM330 46q115 0 169.5 41t54.5 135q0 97 -53 137t-159 40h-47v-353h35zM737 36l45 4 q26 2 35 11t9 38v580q0 29 -9 38t-35 11l-45 4v36h338v-36l-45 -4q-26 -2 -35 -11t-9 -38v-580q0 -29 9 -38t35 -11l45 -4v-36h-338v36z"></glyph><glyph glyph-name="uni042C" unicode="Ь" d="M362 445q183 0 276 -51.5t93 -163.5q0 -105 -93 -167.5t-276 -62.5h-316v36l45 4q26 2 35 11t9 38v580q0 29 -9 38t-35 11l-45 4v36h358v-36l-65 -4q-26 -2 -35 -11t-9 -38v-224h67zM330 46q115 0 169.5 41t54.5 135q0 97 -53 137t-159 40h-47v-353h35z"></glyph><glyph glyph-name="uni042D" unicode="Э" d="M337 -13q-32 0 -66 2.5t-66.5 7t-62 11t-51.5 14.5l-53 262h22l132 -192q17 -25 32 -35t27 -15q11 -4 30.5 -6.5t41.5 -2.5q67 0 117 24.5t84 68.5t52.5 105.5t23.5 135.5h-228q-13 0 -17 -11l-48 -131h-22v336h22l48 -131q4 -11 17 -11h229q-1 89 -24 149t-60 97 t-83.5 52.5t-94.5 15.5q-22 0 -41.5 -2.5t-30.5 -6.5q-12 -5 -27 -15t-32 -35l-132 -192h-22l46 262q45 16 107 25.5t124 9.5q100 0 182.5 -28.5t141.5 -80.5t91 -125t32 -162q0 -96 -32 -170t-89.5 -124.5t-139 -76t-180.5 -25.5z"></glyph><glyph glyph-name="uni042E" unicode="Ю" d="M46 36l45 4q26 2 35 11t9 38v580q0 29 -9 38t-35 11l-45 4v36h338v-36l-45 -4q-26 -2 -35 -11t-9 -38v-242h127q8 84 43.5 149.5t90 110.5t122.5 68.5t142 23.5q78 0 150.5 -26.5t128 -77.5t88.5 -124.5t33 -167.5t-33 -167.5t-88.5 -124.5t-128 -77.5t-150.5 -26.5 q-77 0 -148 25.5t-126 74.5t-89 120t-37 161h-125v-279q0 -29 9 -38t35 -11l45 -4v-36h-338v36zM820 35q103 0 162.5 88.5t59.5 259.5t-59.5 259.5t-162.5 88.5t-162.5 -88.5t-59.5 -259.5t59.5 -259.5t162.5 -88.5z"></glyph><glyph glyph-name="uni042F" unicode="Я" d="M15 0l308 354q-104 17 -162.5 68t-58.5 129q0 58 25 97.5t69.5 64t106 35t133.5 10.5h355v-36l-45 -4q-26 -2 -35 -11t-9 -38v-580q0 -29 9 -38t35 -11l45 -4v-36h-338v36l45 4q26 2 35 11t9 38v247h-40l-292 -336h-195zM542 714h-54q-99 0 -153.5 -37.5t-54.5 -125.5 q0 -90 54.5 -130.5t154.5 -40.5h53v334z"></glyph><glyph glyph-name="uni0402" unicode="Ђ" d="M173 38l70 4q26 2 35 10t9 37v628h-111q-13 0 -17.5 -2.5t-11.5 -13.5l-108 -169h-22l18 226h694l18 -226h-22l-105 169q-7 11 -11.5 13.5t-16.5 2.5h-145v-317q38 27 91.5 42t119.5 15q41 0 83.5 -8.5t77 -34t56.5 -71.5t22 -120v-9q0 -41 -9 -69.5t-25 -51.5t-38.5 -42 t-48.5 -40q-13 -11 -33 -25t-42.5 -30t-46 -32t-42.5 -29l-23 30q44 37 73 63t45.5 52t23 57t6.5 79v29q0 184 -162 184q-78 0 -128 -31v-269q0 -29 9 -37t35 -10l70 -4v-38h-388v38z"></glyph><glyph glyph-name="uni0403" unicode="Ѓ" d="M295 89q0 -29 9 -37t35 -10l80 -4v-38h-373v36l45 4q26 2 35 11t9 38v580q0 29 -9 38t-35 11l-45 4v36h598l37 -271h-22l-143 207q-8 12 -14.5 15t-22.5 3h-184v-623zM418 972h183v-3l-251 -126h-31z"></glyph><glyph glyph-name="uni0404" unicode="Є" d="M481 -13q-99 0 -180.5 28.5t-139 80.5t-89.5 125t-32 162t32 162t91 125t141 80.5t183 28.5q62 0 124 -9.5t107 -25.5l46 -262h-22l-132 192q-17 25 -32 35t-27 15q-11 4 -30.5 6.5t-41.5 2.5q-48 0 -95 -16t-84 -52.5t-60 -97t-23 -148.5h228q13 0 17 11l48 131h22v-336 h-22l-48 131q-4 11 -17 11h-226q4 -68 23 -129t53 -106.5t83.5 -72t116.5 -26.5q22 0 41.5 2.5t30.5 6.5q12 5 27 15t32 35l132 192h22l-53 -262q-22 -8 -51.5 -14.5t-62 -11t-66.5 -7t-66 -2.5z"></glyph><glyph glyph-name="uni0405" unicode="Ѕ" d="M314 -13q-52 0 -108 8t-107 29l-47 246h22l140 -196q14 -20 24.5 -26t22.5 -9q27 -6 58 -6q30 0 56.5 7t46.5 22t32 37t12 52q0 58 -40.5 94.5t-119.5 61.5l-54 17q-94 29 -142 88.5t-48 147.5q0 57 25 98.5t66 68t93 39.5t107 13q42 0 82 -6.5t75 -20.5l48 -235h-22 l-140 186q-12 17 -18 20.5t-16 5.5q-15 3 -32 3q-28 0 -53.5 -7t-45.5 -21.5t-32 -36t-12 -50.5q0 -42 24 -75t85 -53l54 -17q54 -17 99 -38.5t77 -51t49.5 -69t17.5 -93.5q0 -56 -25 -99.5t-65 -73t-90 -45t-99 -15.5z"></glyph><glyph glyph-name="uni0406" unicode="І" d="M46 36l45 4q26 2 35 11t9 38v580q0 29 -9 38t-35 11l-45 4v36h338v-36l-45 -4q-26 -2 -35 -11t-9 -38v-580q0 -29 9 -38t35 -11l45 -4v-36h-338v36z"></glyph><glyph glyph-name="uni0407" unicode="Ї" d="M42 36l45 4q26 2 35 11t9 38v580q0 29 -9 38t-35 11l-45 4v36h338v-36l-45 -4q-26 -2 -35 -11t-9 -38v-580q0 -29 9 -38t35 -11l45 -4v-36h-338v36zM98 837q-30 0 -50 20.5t-20 50.5q0 31 20 51t50 20q29 0 49.5 -20t20.5 -51q0 -30 -20.5 -50.5t-49.5 -20.5zM324 837 q-30 0 -50 20.5t-20 50.5q0 31 20 51t50 20q29 0 49.5 -20t20.5 -51q0 -30 -20.5 -50.5t-49.5 -20.5z"></glyph><glyph glyph-name="uni0408" unicode="Ј" d="M-9 -75q44 37 73 63t45.5 52t23 57t6.5 79v497q0 28 -8 34.5t-34 7.5l-53 2v41h350v-41l-53 -2q-26 -1 -34 -7.5t-8 -34.5v-459q0 -41 -9 -69.5t-25 -51.5t-38.5 -42t-48.5 -40q-13 -11 -33 -25t-42.5 -30t-46 -32t-42.5 -29z"></glyph><glyph glyph-name="uni0409" unicode="Љ" d="M712 445q183 0 276 -51.5t93 -163.5q0 -105 -93 -167.5t-276 -62.5h-316v36l45 4q26 2 35 11t9 38v623h-207q0 -110 -3.5 -201t-12.5 -168t-25.5 -141t-41.5 -118q-24 -51 -52 -73.5t-60 -22.5q-34 0 -51 19t-17 42q0 42 35.5 69.5t112.5 38.5q18 49 29.5 103t17.5 116.5 t8.5 135t2.5 157.5q0 29 -9 38t-35 11l-45 4v36h622v-36l-65 -4q-26 -2 -35 -11t-9 -38v-224h67zM680 46q115 0 169.5 41t54.5 135q0 97 -53 137t-159 40h-47v-353h35z"></glyph><glyph glyph-name="uni040A" unicode="Њ" d="M46 36l45 4q26 2 35 11t9 38v580q0 29 -9 38t-35 11l-45 4v36h338v-36l-45 -4q-26 -2 -35 -11t-9 -38v-233h300v233q0 29 -9 38t-35 11l-45 4v36h358v-36l-65 -4q-26 -2 -35 -11t-9 -38v-233h67q183 0 276 -50.5t93 -159.5q0 -104 -93 -165t-276 -61h-316v36l45 4 q26 2 35 11t9 38v288h-300v-288q0 -29 9 -38t35 -11l45 -4v-36h-338v36zM790 46q115 0 169.5 40.5t54.5 131.5q0 94 -53 133t-159 39h-47v-344h35z"></glyph><glyph glyph-name="uni040B" unicode="Ћ" d="M173 38l70 4q26 2 35 10t9 37v628h-111q-13 0 -17.5 -2.5t-11.5 -13.5l-108 -169h-22l18 226h694l18 -226h-22l-105 169q-7 11 -11.5 13.5t-16.5 2.5h-145v-317q38 27 90 42t116 15q40 0 82 -8.5t75.5 -34t55 -71.5t21.5 -120v-134q0 -29 9 -38t35 -11l45 -4v-36h-249 v205q0 184 -157 184q-38 0 -69 -8t-54 -22v-270q0 -29 9 -37t35 -10l70 -4v-38h-388v38z"></glyph><glyph glyph-name="uni040C" unicode="Ќ" d="M46 36l45 4q26 2 35 11t9 38v580q0 29 -9 38t-35 11l-45 4v36h338v-36l-45 -4q-26 -2 -35 -11t-9 -38v-294l306 313q11 11 6.5 19.5t-27.5 10.5l-73 4v36h298v-36l-51 -3q-34 -2 -52.5 -10.5t-35.5 -25.5l-226 -231l412 -452h-223l-334 367v-278q0 -29 9 -38t35 -11 l45 -4v-36h-338v36zM482 972h183v-3l-251 -126h-31z"></glyph><glyph glyph-name="uni040E" unicode="Ў" d="M358 84q-26 -51 -53 -73.5t-59 -22.5q-34 0 -51 18t-17 43q0 42 36.5 69t124.5 28l18 34l-281 493q-14 25 -26 33.5t-38 11.5l-33 4v36h345v-36l-43 -4q-26 -2 -37 -10.5t3 -34.5l190 -335l174 335q14 26 3 34.5t-37 10.5l-43 4v36h242v-36l-33 -4q-19 -2 -31.5 -5.5 t-21.5 -9t-15.5 -13.5t-12.5 -20zM432 827q-47 0 -81 13t-56 35.5t-32.5 51t-10.5 60.5h113q0 -40 6.5 -65t16 -38.5t21.5 -18t23 -4.5t23 4.5t21.5 18t16 38.5t6.5 65h113q0 -35 -13 -64.5t-37 -50.5t-57 -33t-73 -12z"></glyph><glyph glyph-name="uni040F" unicode="Џ" d="M375 -12q-3 8 -9 10t-17 2h-303v36l45 4q26 2 35 11t9 38v580q0 29 -9 38t-35 11l-45 4v36h338v-36l-45 -4q-26 -2 -35 -11t-9 -38v-623h311v623q0 29 -9 38t-35 11l-45 4v36h338v-36l-45 -4q-26 -2 -35 -11t-9 -38v-580q0 -29 9 -38t35 -11l45 -4v-36h-302q-11 0 -17 -2 t-9 -10l-65 -167h-22z"></glyph><glyph glyph-name="uni0490" unicode="Ґ" d="M295 712v-623q0 -29 9 -37t35 -10l80 -4v-38h-373v36l45 4q26 2 35 11t9 38v580q0 29 -9 38t-35 11l-45 4v36h446q11 0 16 2.5t10 9.5l110 167h22l-8 -225h-347z"></glyph><glyph glyph-name="uni0462" unicode="Ѣ" d="M491 363q183 0 276 -42t93 -131q0 -41 -23.5 -76t-69.5 -60.5t-115.5 -39.5t-160.5 -14h-316v36l45 4q26 2 35 11t9 38v498h-67q-16 0 -21.5 -3t-15.5 -15l-128 -162h-22l22 221h232v41q0 29 -9 38t-35 11l-45 4v36h338v-36l-45 -4q-26 -2 -35 -11t-9 -38v-41h232 l22 -221h-22l-128 162q-10 12 -15.5 15t-21.5 3h-67v-224h67zM459 46q115 0 169.5 32.5t54.5 103.5q0 74 -53.5 104.5t-158.5 30.5h-47v-271h35z"></glyph><glyph glyph-name="uni0472" unicode="Ѳ" d="M450 -13q-80 0 -154 26.5t-131 77.5t-91 124.5t-34 167.5t34 167.5t91 124.5t131 77.5t154 26.5t154 -26.5t131 -77.5t91 -124.5t34 -167.5t-34 -167.5t-91 -124.5t-131 -77.5t-154 -26.5zM218 397q68 29 121.5 38t95.5 6t75 -14t62 -21t55 -15t55 3q-1 82 -18 145 t-47 105.5t-72.5 64.5t-94.5 22q-105 0 -167.5 -85.5t-64.5 -248.5zM450 35q103 0 164.5 81.5t66.5 238.5q-62 -25 -109 -31t-85.5 -0.5t-70 17t-62 20.5t-63.5 10.5t-73 -13.5q5 -158 66.5 -240.5t165.5 -82.5z"></glyph><glyph glyph-name="uni0474" unicode="Ѵ" d="M825 718q0 -39 -33.5 -66.5t-114.5 -30.5l-280 -652h-20l-301 704q-11 26 -24.5 34t-39.5 11l-33 4v36h345v-36l-43 -4q-26 -2 -35.5 -10.5t1.5 -34.5l196 -469l202 479q22 53 51 74.5t61 21.5q34 0 51 -18t17 -43z"></glyph><glyph glyph-name="uni0492" unicode="Ғ" d="M295 89q0 -29 9 -37t35 -10l80 -4v-38h-373v36l45 4q26 2 35 11t9 38v580q0 29 -9 38t-35 11l-45 4v36h598l37 -271h-22l-143 207q-8 12 -14.5 15t-22.5 3h-184v-623zM46 414h399v-59h-399v59z"></glyph><glyph glyph-name="uni0496" unicode="Җ" d="M-20 0l358 446l-217 237q-17 18 -34 26t-51 10l-51 3v36h288v-36l-63 -4q-23 -2 -27 -10.5t6 -19.5l286 -313v294q0 29 -9 38t-35 11l-45 4v36h338v-36l-45 -4q-26 -2 -35 -11t-9 -38v-294l286 313q10 11 6 19.5t-27 10.5l-63 4v36h288v-36l-51 -3q-34 -2 -52.5 -10 t-35.5 -26l-210 -230l327 -407h81l8 -225h-22l-110 167q-5 7 -10 9.5t-16 2.5h-105l-294 366v-277q0 -29 9 -38t35 -11l45 -4v-36h-338v36l45 4q26 2 35 11t9 38v277l-294 -366h-201z"></glyph><glyph glyph-name="uni049A" unicode="Қ" d="M46 36l45 4q26 2 35 11t9 38v580q0 29 -9 38t-35 11l-45 4v36h338v-36l-45 -4q-26 -2 -35 -11t-9 -38v-294l306 313q11 11 6.5 19.5t-27.5 10.5l-73 4v36h298v-36l-51 -3q-34 -2 -52.5 -10.5t-35.5 -25.5l-226 -231l370 -406h84l8 -225h-22l-110 167q-5 7 -10 9.5 t-16 2.5h-115l-334 367v-278q0 -29 9 -38t35 -11l45 -4v-36h-338v36z"></glyph><glyph glyph-name="uni04A2" unicode="Ң" d="M880 46l8 -225h-22l-110 167q-5 7 -10 9.5t-16 2.5h-203v36l45 4q26 2 35 11t9 38v279h-321v-279q0 -29 9 -38t35 -11l45 -4v-36h-338v36l45 4q26 2 35 11t9 38v580q0 29 -9 38t-35 11l-45 4v36h338v-36l-45 -4q-26 -2 -35 -11t-9 -38v-242h321v242q0 29 -9 38t-35 11 l-45 4v36h338v-36l-45 -4q-26 -2 -35 -11t-9 -38v-623h104z"></glyph><glyph glyph-name="uni04AE" unicode="Ү" d="M190 38l70 4q26 2 35 10t9 37v253l-220 331q-8 12 -14 20t-13 13t-15.5 7.5t-21.5 4.5l-33 4v36h350v-36l-43 -4q-26 -2 -38 -11.5t4 -33.5l180 -276l184 276q16 25 4 34t-38 11l-43 4v36h234v-36l-33 -4q-26 -3 -37 -11.5t-27 -33.5l-220 -332v-252q0 -29 9 -37t35 -10 l70 -4v-38h-388v38z"></glyph><glyph glyph-name="uni04B0" unicode="Ұ" d="M190 38l70 4q26 2 35 10t9 37v253l-220 331q-8 12 -14 20t-13 13t-15.5 7.5t-21.5 4.5l-33 4v36h350v-36l-43 -4q-26 -2 -38 -11.5t4 -33.5l180 -276l184 276q16 25 4 34t-38 11l-43 4v36h234v-36l-33 -4q-26 -3 -37 -11.5t-27 -33.5l-220 -332v-252q0 -29 9 -37t35 -10 l70 -4v-38h-388v38zM137 343h501v-59h-501v59z"></glyph><glyph glyph-name="uni04B2" unicode="Ҳ" d="M-5 36l33 4q26 3 47 13t39 32l227 272l-214 316q-16 23 -32 32.5t-42 12.5l-33 4v36h358v-36l-43 -4q-26 -2 -33 -12t9 -33l131 -194l162 194q19 22 16.5 32.5t-28.5 12.5l-43 4v36h237v-36l-33 -4q-26 -3 -47 -13t-39 -32l-196 -236l265 -391h99l8 -225h-22l-110 167 q-5 7 -10 9.5t-16 2.5h-227v36l43 4q26 2 33 12t-9 33l-156 230l-192 -230q-19 -22 -16.5 -32.5t28.5 -12.5l43 -4v-36h-237v36z"></glyph><glyph glyph-name="uni04B6" unicode="Ҷ" d="M507 0v36l45 4q26 2 35 11t9 38v238q-54 -12 -100 -15.5t-78 -3.5q-72 0 -128.5 12.5t-95 41.5t-59 76t-20.5 116v115q0 29 -9 38t-35 11l-45 4v36h338v-36l-45 -4q-26 -2 -35 -11t-9 -38v-128q0 -54 13 -88t37.5 -53t59 -25.5t77.5 -6.5q35 0 67.5 4t66.5 14v283 q0 29 -9 38t-35 11l-45 4v36h338v-36l-45 -4q-26 -2 -35 -11t-9 -38v-623h104l8 -225h-22l-110 167q-5 7 -9.5 9.5t-15.5 2.5h-204z"></glyph><glyph glyph-name="uni04BA" unicode="Һ" d="M775.953 88.9941q0 -28.998 8.99902 -37.9971q8.99902 -9 34.998 -10.999l44.9971 -4v-35.998h-337.979v35.998l44.9971 4q25.999 1.99902 34.998 10.999q9 8.99902 9 37.9971v127.992q0 53.9971 -13 87.9951q-12.999 33.998 -37.4971 52.9971 q-24.499 18.998 -58.9971 25.498t-77.4951 6.5q-34.998 0 -67.4961 -4t-66.4951 -13.999v-282.983q0 -28.998 8.99902 -37.9971q8.99902 -9 34.998 -10.999l44.9971 -4v-35.998h-337.979v35.998l44.9971 4q25.999 1.99902 34.998 10.999q9 8.99902 9 37.9971v579.965 q0 28.998 -9 37.998q-8.99902 8.99902 -34.998 10.999l-44.9971 4v35.998h337.979v-35.998l-44.9971 -4q-25.999 -2 -34.998 -10.999q-8.99902 -9 -8.99902 -37.998v-237.985q53.9961 11.999 99.9932 15.499t77.9951 3.5q71.9961 0 128.492 -12.499 q56.4971 -12.5 94.9941 -41.498q38.498 -28.998 58.9971 -75.9951t20.499 -115.993v-114.993z"></glyph><glyph glyph-name="uni04C0" unicode="Ӏ" d="M46 36l45 4q26 2 35 11t9 38v580q0 29 -9 38t-35 11l-45 4v36h338v-36l-45 -4q-26 -2 -35 -11t-9 -38v-580q0 -29 9 -38t35 -11l45 -4v-36h-338v36z"></glyph><glyph glyph-name="uni04D8" unicode="Ә" d="M410 -13q-68 0 -132 21.5t-114.5 62t-84 100t-41.5 134.5h593q0 96 -25 166t-66.5 115t-96.5 67t-115 22q-41 0 -83 -12t-78.5 -38.5t-63 -70t-34.5 -106.5h-35q4 79 34 140.5t79 104t114 64.5t140 22q74 0 143.5 -24.5t123.5 -74t87 -123.5t33 -174q0 -94 -29.5 -167.5 t-81 -124.5t-120.5 -77.5t-147 -26.5zM410 35q42 0 80 15.5t67 43t48 65.5t24 83h-416q13 -99 66 -153t131 -54z"></glyph><glyph glyph-name="uni04E2" unicode="Ӣ" d="M46 36l45 4q26 2 35 11t9 38v580q0 29 -9 38t-35 11l-45 4v36h338v-36l-45 -4q-26 -2 -35 -11t-9 -38v-462l331 440v22q0 29 -9 38t-35 11l-45 4v36h338v-36l-45 -4q-26 -2 -35 -11t-9 -38v-580q0 -29 9 -38t35 -11l45 -4v-36h-338v36l45 4q26 2 35 11t9 38v469 l-331 -440v-29q0 -29 9 -38t35 -11l45 -4v-36h-338v36zM321 940h314v-68h-314v68z"></glyph><glyph glyph-name="uni04E8" unicode="Ө" d="M450 -13q-80 0 -154 26.5t-131 77.5t-91 124.5t-34 167.5t34 167.5t91 124.5t131 77.5t154 26.5t154 -26.5t131 -77.5t91 -124.5t34 -167.5t-34 -167.5t-91 -124.5t-131 -77.5t-154 -26.5zM450 35q104 0 165.5 82.5t66.5 241.5h-464q5 -159 66.5 -241.5t165.5 -82.5z M450 731q-103 0 -164 -80t-68 -233h463q-7 153 -68 233t-163 80z"></glyph><glyph glyph-name="uni04EE" unicode="Ӯ" d="M358 84q-26 -51 -53 -73.5t-59 -22.5q-34 0 -51 18t-17 43q0 42 36.5 69t124.5 28l18 34l-281 493q-14 25 -26 33.5t-38 11.5l-33 4v36h345v-36l-43 -4q-26 -2 -37 -10.5t3 -34.5l190 -335l174 335q14 26 3 34.5t-37 10.5l-43 4v36h242v-36l-33 -4q-19 -2 -31.5 -5.5 t-21.5 -9t-15.5 -13.5t-12.5 -20zM272 940h314v-68h-314v68z"></glyph><glyph glyph-name="uni0430" unicode="а" d="M198 -13q-36 0 -65.5 11.5t-51.5 30.5t-34 44t-12 53q0 36 18.5 60.5t47 42t61.5 29.5t63 23q39 14 62 28t34.5 28.5t15 31t3.5 35.5q0 35 -21.5 59t-59.5 24q-57 0 -79 -40t-5 -106q-20 -5 -36.5 -6.5t-30.5 -1.5q-41 0 -58.5 18t-17.5 37q0 16 10.5 30t28.5 27t41 24 t47 20q34 13 72.5 23.5t91.5 10.5q33 0 61.5 -7.5t49.5 -24t33 -44t11 -66.5l-8 -315h78v-32l-194 -45l-20 89q-20 -51 -56 -71t-80 -20zM266 48q11 0 22.5 6t21 19t15.5 33.5t6 50.5l1 153q-14 -12 -25.5 -19t-28.5 -18q-42 -26 -60 -57t-18 -69q0 -17 4.5 -35t13 -32 t20.5 -23t28 -9z"></glyph><glyph glyph-name="uni0431" unicode="б" d="M570 263q0 -63 -22 -114t-59 -87t-86 -55.5t-103 -19.5t-102.5 19.5t-84.5 60t-57.5 102t-21.5 145.5q0 74 22.5 147t69 134t117.5 104.5t168 59.5q33 5 52.5 9.5t29 9t12 10t2.5 13.5h30q0 -115 -39 -160t-131 -19q-61 17 -95 21t-50 -4.5t-19 -30t-3 -55.5v-116 q35 41 77.5 57.5t83.5 16.5q42 0 79.5 -15t66.5 -45.5t46 -77t17 -110.5zM302 28q57 0 79 57.5t22 160.5q0 30 -2.5 65t-14 65t-35 50t-65.5 20q-17 0 -41.5 -7t-44.5 -30v-106q0 -72 4.5 -124t15.5 -85.5t31 -49.5t51 -16z"></glyph><glyph glyph-name="uni0432" unicode="в" d="M61 34q13 1 21 2.5t12 5t5.5 11t1.5 21.5v354q0 13 -1.5 21t-5.5 11.5t-12 5t-21 2.5l-27 2v32h283q49 0 89.5 -6.5t69 -20.5t44 -36t15.5 -53q0 -21 -7.5 -40.5t-26 -35.5t-50 -28t-80.5 -19v-1q107 -7 154 -39.5t47 -84.5q0 -31 -14.5 -56.5t-47.5 -43.5t-87.5 -28 t-134.5 -10h-254v32zM249 463v-184h25q49 0 72.5 27t23.5 69q0 37 -24.5 62.5t-73.5 25.5h-23zM249 39h24q66 0 100 24t34 77q0 54 -34.5 77.5t-98.5 23.5h-25v-202z"></glyph><glyph glyph-name="uni0433" unicode="г" d="M249 461v-387q0 -14 1 -21.5t4.5 -11.5t11 -5t20.5 -2l39 -2v-32h-291v32l27 2q13 1 21 2.5t12 5t5.5 11t1.5 21.5v354q0 13 -1.5 21t-5.5 11.5t-12 5t-21 2.5l-27 2v32h416l22 -191h-22l-110 136q-6 7 -10 10.5t-13 3.5h-68z"></glyph><glyph glyph-name="uni0434" unicode="д" d="M37 -157h-22l8 198h66q22 51 36 107t21.5 108.5t10.5 97.5t3 74q0 13 -1.5 21t-5.5 11.5t-12 5t-21 2.5l-27 2v32h447v-32l-27 -2q-13 -1 -21 -2.5t-12 -5t-5.5 -11.5t-1.5 -21v-387h81l8 -198h-22l-88 144q-5 7 -8.5 10t-12.5 3h-285q-9 0 -12.5 -3t-8.5 -10zM325 461 h-122q-1 -43 -3.5 -95t-10 -107.5t-20.5 -111.5t-34 -106h190v420z"></glyph><glyph glyph-name="uni0435" unicode="е" d="M299 -13q-62 0 -111 20.5t-83 55.5t-52 83t-18 104q0 62 22.5 112t59 85.5t83.5 54.5t96 19q95 0 159.5 -51t84.5 -154h-355q0 -49 13 -91.5t37 -74t58 -49.5t77 -18q25 0 50 7.5t46.5 22.5t38 38t24.5 55h29q-17 -110 -84.5 -164.5t-174.5 -54.5zM290 487 q-42 0 -69 -33.5t-34 -95.5h189q-2 70 -25 99.5t-61 29.5z"></glyph><glyph glyph-name="uni0451" unicode="ё" d="M295 -13q-62 0 -111 20.5t-83 55.5t-52 83t-18 104q0 62 22.5 112t59 85.5t83.5 54.5t96 19q95 0 159.5 -51t84.5 -154h-355q0 -49 13 -91.5t37 -74t58 -49.5t77 -18q25 0 50 7.5t46.5 22.5t38 38t24.5 55h29q-17 -110 -84.5 -164.5t-174.5 -54.5zM286 487 q-42 0 -69 -33.5t-34 -95.5h189q-2 70 -25 99.5t-61 29.5zM400 636q-29 0 -48.5 20t-19.5 49q0 30 19.5 49.5t48.5 19.5t48.5 -19.5t19.5 -49.5q0 -29 -19.5 -49t-48.5 -20zM174 636q-29 0 -48.5 20t-19.5 49q0 30 19.5 49.5t48.5 19.5t48.5 -19.5t19.5 -49.5 q0 -29 -19.5 -49t-48.5 -20z"></glyph><glyph glyph-name="uni0436" unicode="ж" d="M-18 0l261 305l-127 113l-24.5 21t-20.5 15t-22 9.5t-28 4.5l-27 2v32h239v-32l-38 -2q-26 -2 -30 -16.5t17 -33.5l187 -167v177q0 13 -1 21t-4.5 12t-11 5t-20.5 2l-29 2v32h282v-32l-28 -2q-13 -1 -21 -2.5t-12 -5t-5.5 -11.5t-1.5 -21v-177l187 167q21 19 17 33.5 t-30 16.5l-38 2v32h239v-32l-27 -2q-17 -1 -29.5 -4.5t-24 -9.5t-23 -15t-25.5 -21l-117 -104l268 -314h-191l-206 238v-155q0 -27 10 -37t36 -12l21 -2v-32h-282v32l21 2q26 2 36 12t10 37v155l-206 -238h-181z"></glyph><glyph glyph-name="uni0437" unicode="з" d="M257 -13q-49 0 -89.5 8t-70 23t-46 38t-16.5 53q0 32 18.5 52t65.5 20q11 0 24 -1t27 -3q-7 -82 17 -119t77 -37q38 0 61 26.5t23 80.5q0 32 -8.5 53t-23.5 33t-36 17t-46 5h-54v49h53q42 0 65 24t23 85q0 16 -4 32.5t-13 29.5t-23.5 21t-34.5 8h-11.5t-11.5 -2 q-10 -2 -18 -8t-19 -21l-89 -123h-22l19 170q31 9 68.5 14.5t82.5 5.5q51 0 95 -7.5t76.5 -23t51 -39t18.5 -55.5q0 -25 -8 -45t-27.5 -36.5t-53 -29.5t-85.5 -22v-1q98 -7 149.5 -41t51.5 -94q0 -30 -15 -55.5t-46 -44t-79.5 -29.5t-115.5 -11z"></glyph><glyph glyph-name="uni0438" unicode="и" d="M101 428q0 13 -1.5 21t-5.5 11.5t-12 5t-21 2.5l-27 2v32h268v-32l-16 -2q-13 -2 -20.5 -3t-11 -5t-4.5 -11.5t-1 -20.5v-269l156 259v10q0 13 -1 20.5t-4.5 11.5t-11 5t-20.5 3l-16 2v32h268v-32l-27 -2q-13 -1 -21 -2.5t-12 -5t-5.5 -11.5t-1.5 -21v-354 q0 -14 1.5 -21.5t5.5 -11t12 -5t21 -2.5l27 -2v-32h-268v32l16 2q13 1 20.5 2.5t11 5.5t4.5 11t1 21v263l-156 -259v-4q0 -14 1 -21t4.5 -11t11 -5.5t20.5 -2.5l16 -2v-32h-268v32l27 2q13 1 21 2.5t12 5t5.5 11t1.5 21.5v354z"></glyph><glyph glyph-name="uni0439" unicode="й" d="M101 428q0 13 -1.5 21t-5.5 11.5t-12 5t-21 2.5l-27 2v32h268v-32l-16 -2q-13 -2 -20.5 -3t-11 -5t-4.5 -11.5t-1 -20.5v-269l156 259v10q0 13 -1 20.5t-4.5 11.5t-11 5t-20.5 3l-16 2v32h268v-32l-27 -2q-13 -1 -21 -2.5t-12 -5t-5.5 -11.5t-1.5 -21v-354 q0 -14 1.5 -21.5t5.5 -11t12 -5t21 -2.5l27 -2v-32h-268v32l16 2q13 1 20.5 2.5t11 5.5t4.5 11t1 21v263l-156 -259v-4q0 -14 1 -21t4.5 -11t11 -5.5t20.5 -2.5l16 -2v-32h-268v32l27 2q13 1 21 2.5t12 5t5.5 11t1.5 21.5v354zM322 628q-47 0 -81 13t-56 35.5t-32.5 51 t-10.5 60.5h113q0 -40 6.5 -65t16 -38.5t21.5 -18t23 -4.5t23 4.5t21.5 18t16 38.5t6.5 65h113q0 -35 -13 -64.5t-37 -50.5t-57 -33t-73 -12z"></glyph><glyph glyph-name="uni043A" unicode="к" d="M101 428q0 13 -1.5 21t-5.5 11.5t-12 5t-21 2.5l-27 2v32h281v-32l-29 -2q-13 -1 -20.5 -2t-11 -5t-4.5 -12t-1 -21v-177l187 167q21 19 17 33.5t-30 16.5l-38 2v32h239v-32l-27 -2q-17 -1 -29.5 -4.5t-24 -9.5t-23 -15t-25.5 -21l-116 -103l285 -315h-199l-216 238v-155 q0 -27 10 -37t36 -12l21 -2v-32h-282v32l21 2q26 2 36 12t10 37v345z"></glyph><glyph glyph-name="uni043B" unicode="л" d="M168 74q-20 -44 -47.5 -65.5t-56.5 -21.5t-44 17.5t-15 40.5q0 37 32 62t109 36q20 58 24.5 131t4.5 154q0 13 -1.5 21t-5.5 12t-12 5t-21 2l-37 2v32h456v-32l-27 -2q-13 -1 -21 -2.5t-12 -5t-5.5 -11.5t-1.5 -21v-354q0 -14 1.5 -21.5t5.5 -11t12 -5t21 -2.5l27 -2v-32 h-282v32l30 2q13 1 20.5 2t11 5t4.5 11.5t1 21.5v387h-122q0 -129 -10.5 -228t-38.5 -159z"></glyph><glyph glyph-name="uni043C" unicode="м" d="M34 32l27 2q13 1 20.5 2.5t11.5 5t5.5 11t2.5 21.5l25 354q1 13 0 21t-5.5 11.5t-13 5t-21.5 2.5l-27 2v32h204l105 -237l104 237h214v-32l-27 -2q-26 -2 -34 -7.5t-6 -32.5l24 -354q1 -27 7.5 -32.5t32.5 -7.5l27 -2v-32h-282v32l30 2q13 1 21 2t11.5 5t4.5 11.5t0 21.5 l-22 341l-150 -343h-6l-152 343l-23 -341q-2 -27 4.5 -33t32.5 -7l30 -2v-32h-175v32z"></glyph><glyph glyph-name="uni043D" unicode="н" d="M101 428q0 13 -1.5 21t-5.5 11.5t-12 5t-21 2.5l-27 2v32h268v-32l-16 -2q-13 -2 -20.5 -3t-11 -5t-4.5 -11.5t-1 -20.5v-142h146v142q0 13 -1 20.5t-4.5 11.5t-11 5t-20.5 3l-16 2v32h268v-32l-27 -2q-13 -1 -21 -2.5t-12 -5t-5.5 -11.5t-1.5 -21v-354q0 -14 1.5 -21.5 t5.5 -11t12 -5t21 -2.5l27 -2v-32h-268v32l16 2q13 1 20.5 2.5t11 5.5t4.5 11t1 21v161h-146v-161q0 -14 1 -21t4.5 -11t11 -5.5t20.5 -2.5l16 -2v-32h-268v32l27 2q13 1 21 2.5t12 5t5.5 11t1.5 21.5v354z"></glyph><glyph glyph-name="uni043E" unicode="о" d="M310 -13q-62 0 -113 21t-87 56.5t-56 83t-20 101.5q0 60 22 110t59.5 86t88.5 56t110 20q62 0 113 -21t87 -56.5t56 -83t20 -101.5q0 -60 -22 -110t-59.5 -86t-89 -56t-109.5 -20zM312 28q23 0 43.5 11.5t35.5 37.5t23.5 69.5t8.5 108.5q0 64 -8.5 108t-23.5 70 t-35.5 37.5t-43.5 11.5q-24 0 -44.5 -11.5t-36 -37.5t-24 -70t-8.5 -108q0 -65 8.5 -108.5t24 -69.5t36 -37.5t44.5 -11.5z"></glyph><glyph glyph-name="uni043F" unicode="п" d="M249 461v-387q0 -14 1 -21t4.5 -11t11 -5.5t20.5 -2.5l16 -2v-32h-268v32l27 2q13 1 21 2.5t12 5t5.5 11t1.5 21.5v354q0 13 -1.5 21t-5.5 11.5t-12 5t-21 2.5l-27 2v32h571v-32l-27 -2q-13 -1 -21 -2.5t-12 -5t-5.5 -11.5t-1.5 -21v-354q0 -14 1.5 -21.5t5.5 -11t12 -5 t21 -2.5l27 -2v-32h-268v32l16 2q13 1 20.5 2.5t11 5.5t4.5 11t1 21v387h-141z"></glyph><glyph glyph-name="uni0440" unicode="р" d="M24 -216l27 2q13 1 21 2.5t12 5t5.5 11t1.5 21.5v526l-76 60v6l224 111v-70q24 27 59.5 44.5t75.5 17.5q42 0 79.5 -17.5t66 -51.5t45.5 -84t17 -115q0 -60 -18 -109t-49.5 -84t-73 -54t-89.5 -19q-32 0 -62.5 13t-50.5 35v-209q0 -27 10 -32t36 -6l51 -3v-33h-312v32z M297 452q-14 0 -29 -4t-29 -16v-369q12 -11 26.5 -15t28.5 -4q53 0 88 54.5t35 153.5q0 45 -9 81.5t-25.5 63t-38.5 41t-47 14.5z"></glyph><glyph glyph-name="uni0441" unicode="с" d="M290 -13q-60 0 -107.5 20t-80.5 55.5t-50.5 82.5t-17.5 101q0 64 23 115t61.5 86.5t89 54.5t105.5 19q39 0 74.5 -8t63.5 -23t44.5 -38t16.5 -53q0 -32 -20.5 -52t-71.5 -20q-11 0 -24 1t-27 3q7 82 -15 119t-64 37q-19 0 -38.5 -9.5t-35 -30.5t-25 -54.5t-9.5 -80.5 t12 -88.5t34.5 -73t55.5 -49.5t75 -18q24 0 48.5 7.5t46 22.5t37.5 38t24 55h29q-19 -114 -85 -166.5t-169 -52.5z"></glyph><glyph glyph-name="uni0442" unicode="т" d="M175 466q-9 0 -13 -3.5t-10 -10.5l-113 -141h-19l22 191h486l22 -191h-19l-113 141q-6 7 -10 10.5t-13 3.5h-36v-392q0 -14 1.5 -21.5t5.5 -11t12 -5t21 -2.5l27 -2v-32h-282v32l27 2q13 1 21 2.5t12 5t5.5 11t1.5 21.5v392h-36z"></glyph><glyph glyph-name="uni0443" unicode="у" d="M252 -5l-179 418q-12 28 -22.5 40t-36.5 15l-16 2v32h286v-32l-21 -2q-51 -4 -32 -49l102 -247l99 219q18 41 8.5 57t-35.5 19l-28 3v32h198v-32l-20 -2q-27 -3 -40.5 -15.5t-27.5 -44.5l-248 -542q-29 -63 -56.5 -92t-69.5 -29q-33 0 -52 22t-19 53q0 21 12 40t34 31.5 t54 18.5t72 2z"></glyph><glyph glyph-name="uni0444" unicode="ф" d="M263 -216l27 2q13 1 21 2.5t12 5t5.5 11t1.5 21.5v161q-63 2 -117.5 23.5t-94 57t-62 82t-22.5 99.5q0 58 24.5 107t65 84.5t94 56.5t112.5 24v134l-76 64v6l224 77v-281q63 -2 117 -23t94 -56.5t62.5 -82.5t22.5 -100q0 -59 -24.5 -107.5t-65.5 -84.5t-94.5 -57 t-111.5 -23v-161q0 -14 1.5 -21.5t5.5 -11t12 -5t21 -2.5l27 -2v-32h-282v32zM609 255q0 62 -10 104.5t-27.5 69t-41.5 39t-52 14.5v-454q28 2 52 14.5t41.5 39t27.5 69t10 104.5zM199 255q0 -61 10 -103.5t27.5 -69t41.5 -39.5t52 -15v454q-28 -2 -52 -15t-41.5 -39.5 t-27.5 -69t-10 -103.5z"></glyph><glyph glyph-name="uni0445" unicode="х" d="M-2 32l20 2q27 3 56.5 22.5t71.5 61.5l107 109l-140 186q-18 24 -32.5 38t-40.5 17l-16 2v32h298v-32l-21 -2q-26 -2 -29.5 -15.5t11.5 -33.5l69 -92l63 64q32 32 30.5 52.5t-27.5 23.5l-28 3v32h226v-32l-20 -2q-27 -3 -56.5 -22t-68.5 -58l-93 -95l153 -204 q18 -24 32.5 -38t40.5 -17l16 -2v-32h-298v32l21 2q26 2 29.5 15.5t-11.5 33.5l-82 109l-80 -81q-32 -32 -30.5 -52.5t27.5 -23.5l28 -3v-32h-226v32z"></glyph><glyph glyph-name="uni0446" unicode="ц" d="M34 0v32l27 2q13 1 21 2.5t12 5t5.5 11t1.5 21.5v354q0 13 -1.5 21t-5.5 11.5t-12 5t-21 2.5l-27 2v32h268v-32l-16 -2q-13 -2 -20.5 -3t-11 -5t-4.5 -11.5t-1 -20.5v-387h141v387q0 13 -1 20.5t-4.5 11.5t-11 5t-20.5 3l-16 2v32h268v-32l-27 -2q-13 -1 -21 -2.5t-12 -5 t-5.5 -11.5t-1.5 -21v-387h81l8 -198h-22l-88 144q-5 7 -8.5 10t-12.5 3h-462z"></glyph><glyph glyph-name="uni0447" unicode="ч" d="M81 428q0 13 -1.5 21t-5.5 11.5t-12 5t-21 2.5l-27 2v32h268v-32l-16 -2q-13 -2 -20.5 -3t-11 -5t-4.5 -11.5t-1 -20.5v-65q0 -62 14.5 -88.5t55.5 -26.5q15 0 32 4.5t34 11.5v164q0 13 -1 20.5t-4.5 11.5t-11 5t-20.5 3l-16 2v32h268v-32l-27 -2q-13 -1 -21 -2.5t-12 -5 t-5.5 -11.5t-1.5 -21v-354q0 -14 1.5 -21.5t5.5 -11t12 -5t21 -2.5l27 -2v-32h-291v32l39 2q13 1 20.5 2t11 5t4.5 11.5t1 21.5v148q-16 -5 -42.5 -11.5t-68.5 -6.5q-41 0 -73.5 8t-54.5 26.5t-33.5 49t-11.5 75.5v65z"></glyph><glyph glyph-name="uni0448" unicode="ш" d="M393 41v387q0 13 -1 20.5t-4.5 11.5t-11 5t-20.5 3l-16 2v32h254v-32l-13 -2q-13 -2 -21 -3.5t-12 -5t-5.5 -11t-1.5 -20.5v-387h144v387q0 13 -1 20.5t-4.5 11.5t-11 5t-20.5 3l-16 2v32h268v-32l-27 -2q-13 -1 -21 -2.5t-12 -5t-5.5 -11.5t-1.5 -21v-354 q0 -14 1.5 -21.5t5.5 -11t12 -5t21 -2.5l27 -2v-32h-866v32l27 2q13 1 21 2.5t12 5t5.5 11t1.5 21.5v354q0 13 -1.5 21t-5.5 11.5t-12 5t-21 2.5l-27 2v32h268v-32l-16 -2q-13 -2 -20.5 -3t-11 -5t-4.5 -11.5t-1 -20.5v-387h144z"></glyph><glyph glyph-name="uni0449" unicode="щ" d="M34 0v32l27 2q13 1 21 2.5t12 5t5.5 11t1.5 21.5v354q0 13 -1.5 21t-5.5 11.5t-12 5t-21 2.5l-27 2v32h268v-32l-16 -2q-13 -2 -20.5 -3t-11 -5t-4.5 -11.5t-1 -20.5v-387h144v387q0 13 -1 20.5t-4.5 11.5t-11 5t-20.5 3l-16 2v32h254v-32l-13 -2q-13 -2 -21 -3.5t-12 -5 t-5.5 -11t-1.5 -20.5v-387h144v387q0 13 -1 20.5t-4.5 11.5t-11 5t-20.5 3l-16 2v32h268v-32l-27 -2q-13 -1 -21 -2.5t-12 -5t-5.5 -11.5t-1.5 -21v-387h81l8 -198h-22l-88 144q-5 7 -8.5 10t-12.5 3h-757z"></glyph><glyph glyph-name="uni044A" unicode="ъ" d="M175 466q-9 0 -13 -3t-10 -11l-118 -141h-19l27 191h383v-32l-39 -2q-13 -1 -20.5 -2t-11 -5t-4.5 -12t-1 -21v-125h59q124 0 189 -38t65 -111q0 -72 -65 -113t-189 -41h-274v32l27 2q13 1 21 2.5t12 5t5.5 11t1.5 21.5v392h-26zM349 41h32q57 0 86.5 25t29.5 90 q0 57 -29 81.5t-83 24.5h-36v-221z"></glyph><glyph glyph-name="uni044B" unicode="ы" d="M611 428q0 13 -1.5 21t-5.5 11.5t-12 5t-21 2.5l-27 2v32h282v-32l-30 -2q-13 -1 -20.5 -2t-11 -5t-4.5 -12t-1 -21v-354q0 -14 1 -21.5t4.5 -11.5t11 -5t20.5 -2l30 -2v-32h-282v32l27 2q13 1 21 2.5t12 5t5.5 11t1.5 21.5v354zM325 470l-39 -2q-13 -1 -20.5 -2t-11 -5 t-4.5 -12t-1 -21v-125h59q124 0 189 -38t65 -111q0 -72 -65 -113t-189 -41h-274v32l27 2q13 1 21 2.5t12 5t5.5 11t1.5 21.5v354q0 13 -1.5 21t-5.5 11.5t-12 5t-21 2.5l-27 2v32h291v-32zM249 41h32q57 0 86.5 25t29.5 90q0 57 -29 81.5t-83 24.5h-36v-221z"></glyph><glyph glyph-name="uni044C" unicode="ь" d="M325 470l-39 -2q-13 -1 -20.5 -2t-11 -5t-4.5 -12t-1 -21v-125h59q124 0 189 -38t65 -111q0 -72 -65 -113t-189 -41h-274v32l27 2q13 1 21 2.5t12 5t5.5 11t1.5 21.5v354q0 13 -1.5 21t-5.5 11.5t-12 5t-21 2.5l-27 2v32h291v-32zM249 41h32q57 0 86.5 25t29.5 90 q0 57 -29 81.5t-83 24.5h-36v-221z"></glyph><glyph glyph-name="uni044D" unicode="э" d="M181 286h196q-2 56 -11.5 94t-26 61.5t-39 33.5t-49.5 10q-5 0 -12.5 -0.5t-17.5 -2.5t-18 -8t-19 -20l-89 -123h-22l19 170q65 20 163 20q63 0 116.5 -21t92 -56.5t60 -83t21.5 -101.5q0 -64 -22.5 -114.5t-60.5 -85.5t-88 -53.5t-105 -18.5q-51 0 -93.5 8t-72.5 23 t-46.5 38t-16.5 53q0 32 18.5 52t66.5 20q11 0 24 -1t27 -3q-7 -82 17 -119t76 -37q24 0 43.5 11t34 36t22.5 66t9 101h-197v51z"></glyph><glyph glyph-name="uni044E" unicode="ю" d="M101 428q0 13 -1.5 21t-5.5 11.5t-12 5t-21 2.5l-27 2v32h281v-32l-29 -2q-13 -1 -20.5 -2t-11 -5t-4.5 -12t-1 -21v-142h72q6 52 29 95.5t57.5 74.5t78.5 48t93 17q56 0 103 -21t81 -56.5t53 -83t19 -101.5q0 -60 -21 -110t-56.5 -86t-82.5 -56t-100 -20 q-54 0 -100 19.5t-80 53t-53.5 79t-22.5 96.5h-70v-161q0 -14 1 -21.5t4.5 -11.5t11 -5t20.5 -2l29 -2v-32h-281v32l27 2q13 1 21 2.5t12 5t5.5 11t1.5 21.5v354zM577 28q21 0 38 11.5t28.5 37.5t18 69.5t6.5 108.5q0 64 -6.5 108t-18 70t-28.5 37.5t-38 11.5 q-22 0 -39 -11.5t-29 -37.5t-18.5 -70t-6.5 -108q0 -65 6.5 -108.5t18.5 -69.5t29 -37.5t39 -11.5z"></glyph><glyph glyph-name="uni044F" unicode="я" d="M198 233q-63 11 -100 44t-37 91q0 35 19 60.5t52.5 42t81 24t104.5 7.5h255v-32l-27 -2q-13 -1 -21 -2.5t-12 -5t-5.5 -11.5t-1.5 -21v-354q0 -14 1.5 -21.5t5.5 -11t12 -5t21 -2.5l27 -2v-32h-282v32l30 2q13 1 20.5 2t11 5t4.5 11.5t1 21.5v141h-21l-179 -215h-173z M332 462q-21 0 -40.5 -4t-34.5 -15t-24 -30.5t-9 -49.5q0 -29 9 -49.5t24 -33.5t34.5 -19t40.5 -6h26v207h-26z"></glyph><glyph glyph-name="uni0452" unicode="ђ" d="M382 306q0 39 -5 63.5t-14 39t-21.5 19.5t-27.5 5t-29 -5.5t-25 -19.5t-17.5 -39t-6.5 -64v-231q0 -14 1 -21t4.5 -11t11 -5.5t20.5 -2.5l19 -2v-32h-271v32l27 2q13 1 21 2.5t12 5t5.5 11t1.5 21.5v491h-76v51h76v39l-76 64v6l224 77v-186h102v-51h-102v-164 q17 55 54.5 87.5t97.5 32.5q30 0 56 -9t45 -30.5t30 -57.5t11 -90v-285q0 -41 -7 -71.5t-20.5 -54.5t-34.5 -44.5t-48 -39.5q-13 -9 -31 -21.5t-39 -26t-43.5 -27.5t-44.5 -27l-19 27q34 30 60.5 56t43.5 56t26 69.5t9 96.5v264z"></glyph><glyph glyph-name="uni0453" unicode="ѓ" d="M249 461v-387q0 -14 1 -21.5t4.5 -11.5t11 -5t20.5 -2l39 -2v-32h-291v32l27 2q13 1 21 2.5t12 5t5.5 11t1.5 21.5v354q0 13 -1.5 21t-5.5 11.5t-12 5t-21 2.5l-27 2v32h416l22 -191h-22l-110 136q-6 7 -10 10.5t-13 3.5h-68zM334 788h148v-11l-230 -168h-28z"></glyph><glyph glyph-name="uni0454" unicode="є" d="M290 -13q-60 0 -107.5 20t-80.5 55.5t-50.5 82.5t-17.5 101q0 64 23 115t61.5 86.5t89 54.5t105.5 19q39 0 74.5 -8t63.5 -23t44.5 -38t16.5 -53q0 -32 -20.5 -52t-71.5 -20q-11 0 -24 1t-27 3q7 82 -15 119t-64 37q-19 0 -38.5 -9.5t-35 -30.5t-25 -54.5t-9.5 -80.5 v-13.5t1 -12.5h170v-51h-163q17 -66 60 -109t109 -43q24 0 48.5 7.5t46 22.5t37.5 38t24 55h29q-19 -114 -85 -166.5t-169 -52.5z"></glyph><glyph glyph-name="uni0455" unicode="ѕ" d="M204 -13q-37 0 -71.5 5.5t-74.5 18.5l-16 178h22l76 -124q10 -17 20 -25t20 -11.5t20 -3.5h21q35 0 60.5 19t25.5 54q0 30 -18 52t-59 31l-53 12q-61 14 -97.5 55.5t-36.5 107.5q0 40 18 70.5t48 51.5t68.5 32t80.5 11q32 0 68 -4.5t66 -15.5l19 -170h-22l-85 122 q-16 23 -31 27.5t-35 4.5q-35 0 -58 -19t-23 -54q0 -32 19.5 -54t57.5 -30l43 -9q81 -17 117.5 -59.5t36.5 -100.5q0 -38 -17 -69.5t-47.5 -54.5t-72 -35.5t-90.5 -12.5z"></glyph><glyph glyph-name="uni0456" unicode="і" d="M34 32l27 2q13 1 21 2.5t12 5t5.5 11t1.5 21.5v283l-76 72v6l224 94v-455q0 -14 1.5 -21.5t5.5 -11t12 -5t21 -2.5l27 -2v-32h-282v32zM81 710q0 18 7.5 35t20.5 30t30 20.5t35 7.5q19 0 36 -7.5t30 -20.5t20.5 -30t7.5 -35q0 -19 -7.5 -36t-20.5 -30t-30 -20.5t-36 -7.5 q-18 0 -35 7.5t-30 20.5t-20.5 30t-7.5 36z"></glyph><glyph glyph-name="uni0457" unicode="ї" d="M82 616q-36 0 -57 27.5t-21 66.5q0 38 21 65.5t57 27.5q35 0 57 -27.5t22 -65.5q0 -39 -22 -66.5t-57 -27.5zM254 616q-36 0 -57 27.5t-21 66.5q0 38 21 65.5t57 27.5q35 0 57 -27.5t22 -65.5q0 -39 -22 -66.5t-57 -27.5zM34 32l27 2q13 1 21 2.5t12 5t5.5 11t1.5 21.5 v283l-76 72v6l224 94v-455q0 -14 1.5 -21.5t5.5 -11t12 -5t21 -2.5l27 -2v-32h-282v32z"></glyph><glyph glyph-name="uni0458" unicode="ј" d="M-47 -236q34 30 60.5 56t43.5 56t26 69.5t9 96.5v315l-76 72v6l224 94v-480q0 -41 -7 -71.5t-20.5 -54.5t-34.5 -44.5t-48 -39.5q-13 -9 -31 -21.5t-39 -26t-43.5 -27.5t-44.5 -27zM72 710q0 18 7.5 35t20.5 30t30 20.5t35 7.5q19 0 36 -7.5t30 -20.5t20.5 -30t7.5 -35 q0 -19 -7.5 -36t-20.5 -30t-30 -20.5t-36 -7.5q-18 0 -35 7.5t-30 20.5t-20.5 30t-7.5 36z"></glyph><glyph glyph-name="uni0459" unicode="љ" d="M564 470l-39 -2q-13 -1 -20.5 -2t-11 -5t-4.5 -12t-1 -21v-125h59q124 0 189 -38t65 -111q0 -72 -65 -113t-189 -41h-274v32l27 2q13 1 21 2.5t12 5t5.5 11t1.5 21.5v387h-123q0 -129 -10.5 -228t-38.5 -159q-20 -44 -47.5 -65.5t-56.5 -21.5t-44 17.5t-15 40.5 q0 37 32 62t109 36q20 58 24.5 131t4.5 154q0 13 -1.5 21t-5.5 12t-12 5t-21 2l-37 2v32h466v-32zM488 41h32q57 0 86.5 25t29.5 90q0 57 -29 81.5t-83 24.5h-36v-221z"></glyph><glyph glyph-name="uni045A" unicode="њ" d="M101 428q0 13 -1.5 21t-5.5 11.5t-12 5t-21 2.5l-27 2v32h268v-32l-16 -2q-13 -2 -20.5 -3t-11 -5t-4.5 -11.5t-1 -20.5v-132h146v132q0 13 -1 20.5t-4.5 11.5t-11 5t-20.5 3l-16 2v32h277v-32l-39 -2q-13 -1 -20.5 -2t-11 -5t-4.5 -12t-1 -21v-132h59q124 0 189 -38 t65 -110q0 -69 -65 -108.5t-189 -39.5h-260v32l16 2q13 1 20.5 2.5t11 5.5t4.5 11t1 21v171h-146v-171q0 -14 1 -21t4.5 -11t11 -5.5t20.5 -2.5l16 -2v-32h-268v32l27 2q13 1 21 2.5t12 5t5.5 11t1.5 21.5v354zM543 41h32q57 0 86.5 23.5t29.5 85.5q0 56 -29 80.5t-83 24.5 h-36v-214z"></glyph><glyph glyph-name="uni045B" unicode="ћ" d="M17 32l27 2q13 1 21 2.5t12 5t5.5 11t1.5 21.5v581l-76 64v6l224 77v-401q17 55 54.5 87.5t97.5 32.5q30 0 56 -9t45 -30.5t30 -57.5t11 -90v-260q0 -14 1.5 -21.5t5.5 -11t12 -5t21 -2.5l27 -2v-32h-271v32l19 2q13 1 20.5 2.5t11 5.5t4.5 11t1 21v232q0 39 -5 63.5 t-14 39t-21.5 19.5t-27.5 5t-29 -5.5t-25 -19.5t-17.5 -39t-6.5 -64v-231q0 -14 1 -21t4.5 -11t11 -5.5t20.5 -2.5l19 -2v-32h-271v32zM8 616h326v-51h-326v51z"></glyph><glyph glyph-name="uni045C" unicode="ќ" d="M401 788h148v-11l-230 -168h-28zM101 428q0 13 -1.5 21t-5.5 11.5t-12 5t-21 2.5l-27 2v32h281v-32l-29 -2q-13 -1 -20.5 -2t-11 -5t-4.5 -12t-1 -21v-177l187 167q21 19 17 33.5t-30 16.5l-38 2v32h239v-32l-27 -2q-17 -1 -29.5 -4.5t-24 -9.5t-23 -15t-25.5 -21 l-116 -103l285 -315h-199l-216 238v-155q0 -27 10 -37t36 -12l21 -2v-32h-282v32l21 2q26 2 36 12t10 37v345z"></glyph><glyph glyph-name="uni045E" unicode="ў" d="M252 -5l-179 418q-12 28 -22.5 40t-36.5 15l-16 2v32h286v-32l-21 -2q-51 -4 -32 -49l102 -247l99 219q18 41 8.5 57t-35.5 19l-28 3v32h198v-32l-20 -2q-27 -3 -40.5 -15.5t-27.5 -44.5l-248 -542q-29 -63 -56.5 -92t-69.5 -29q-33 0 -52 22t-19 53q0 21 12 40t34 31.5 t54 18.5t72 2zM305 628q-47 0 -81 13t-56 35.5t-32.5 51t-10.5 60.5h113q0 -40 6.5 -65t16 -38.5t21.5 -18t23 -4.5t23 4.5t21.5 18t16 38.5t6.5 65h113q0 -35 -13 -64.5t-37 -50.5t-57 -33t-73 -12z"></glyph><glyph glyph-name="uni045F" unicode="џ" d="M253 -13q-5 13 -21 13h-198v32l27 2q13 1 21 2.5t12 5t5.5 11t1.5 21.5v354q0 13 -1.5 21t-5.5 11.5t-12 5t-21 2.5l-27 2v32h268v-32l-16 -2q-13 -2 -20.5 -3t-11 -5t-4.5 -11.5t-1 -20.5v-387h136v387q0 13 -1 20.5t-4.5 11.5t-11 5t-20.5 3l-16 2v32h268v-32l-27 -2 q-13 -1 -21 -2.5t-12 -5t-5.5 -11.5t-1.5 -21v-354q0 -14 1.5 -21.5t5.5 -11t12 -5t21 -2.5l27 -2v-32h-198q-16 0 -21 -13l-53 -144h-22z"></glyph><glyph glyph-name="uni0491" unicode="ґ" d="M249 461v-387q0 -14 1 -21.5t4.5 -11.5t11 -5t20.5 -2l39 -2v-32h-291v32l27 2q13 1 21 2.5t12 5t5.5 11t1.5 21.5v354q0 13 -1.5 21t-5.5 11.5t-12 5t-21 2.5l-27 2v32h291q9 0 12.5 3t8.5 10l88 144h22l-8 -198h-199z"></glyph><glyph glyph-name="uni0463" unicode="ѣ" d="M201 466h-36q-9 0 -13 -4l-10 -10l-113 -121h-19l22 171h169v153l-76 64v6l224 77v-300h169l22 -171h-19l-113 121l-10 10t-13 4h-36v-168h59q124 0 189 -36.5t65 -109.5q0 -72 -65 -112t-189 -40h-274v32l27 2q13 1 21 2.5t12 5t5.5 11t1.5 21.5v392zM349 41h32 q56 0 86 24t30 89q0 57 -29 80t-83 23h-36v-216z"></glyph><glyph glyph-name="uni0473" unicode="ѳ" d="M310 -13q-62 0 -113 21t-87 56.5t-56 83t-20 101.5q0 60 22 110t59.5 86t88.5 56t110 20q62 0 113 -21t87 -56.5t56 -83t20 -101.5q0 -60 -22 -110t-59.5 -86t-89 -56t-109.5 -20zM199 261q49 33 83.5 36.5t60 -4.5t44 -20t36.5 -12q-1 63 -9.5 105t-23.5 68t-35 37 t-43 11q-24 0 -44.5 -11t-35.5 -37t-24 -68t-9 -105zM312 28q22 0 41.5 10t34 33.5t23.5 62.5t11 96q-42 -28 -73 -28t-56.5 10t-47.5 21t-46 7q1 -60 10 -100.5t24 -65.5t35.5 -35.5t43.5 -10.5z"></glyph><glyph glyph-name="uni0475" unicode="ѵ" d="M439 417q25 57 52.5 80.5t59.5 23.5t47.5 -17t15.5 -44q0 -42 -37.5 -67t-116.5 -38l-162 -367h-40l-188 425q-12 28 -22.5 40t-36.5 15l-16 2v32h286v-32l-21 -2q-52 -4 -32 -49l108 -242z"></glyph><glyph glyph-name="uni0493" unicode="ғ" d="M249 461v-176h116v-51h-116v-160q0 -14 1 -21.5t4.5 -11.5t11 -5t20.5 -2l39 -2v-32h-291v32l27 2q13 1 21 2.5t12 5t5.5 11t1.5 21.5v160h-67v51h67v143q0 13 -1.5 21t-5.5 11.5t-12 5t-21 2.5l-27 2v32h416l22 -191h-22l-110 136q-6 7 -10 10.5t-13 3.5h-68z"></glyph><glyph glyph-name="uni0497" unicode="җ" d="M-18 0l261 305l-127 113l-24.5 21t-20.5 15t-22 9.5t-28 4.5l-27 2v32h239v-32l-38 -2q-26 -2 -30 -16.5t17 -33.5l187 -167v177q0 13 -1 21t-4.5 12t-11 5t-20.5 2l-29 2v32h282v-32l-28 -2q-13 -1 -21 -2.5t-12 -5t-5.5 -11.5t-1.5 -21v-177l187 167q21 19 17 33.5 t-30 16.5l-38 2v32h239v-32l-27 -2q-17 -1 -29.5 -4.5t-24 -9.5t-23 -15t-25.5 -21l-117 -104l233 -273h68l8 -198h-22l-88 144q-5 7 -8.5 10t-12.5 3h-101l-206 238v-155q0 -27 10 -37t36 -12l21 -2v-32h-282v32l21 2q26 2 36 12t10 37v155l-206 -238h-181z"></glyph><glyph glyph-name="uni049B" unicode="қ" d="M101 428q0 13 -1.5 21t-5.5 11.5t-12 5t-21 2.5l-27 2v32h281v-32l-29 -2q-13 -1 -20.5 -2t-11 -5t-4.5 -12t-1 -21v-177l187 167q21 19 17 33.5t-30 16.5l-38 2v32h239v-32l-27 -2q-17 -1 -29.5 -4.5t-24 -9.5t-23 -15t-25.5 -21l-116 -103l248 -274h67l8 -198h-22 l-88 144q-5 7 -8.5 10t-12.5 3h-106l-216 238v-155q0 -27 10 -37t36 -12l21 -2v-32h-282v32l21 2q26 2 36 12t10 37v345z"></glyph><glyph glyph-name="uni04A3" unicode="ң" d="M101 428q0 13 -1.5 21t-5.5 11.5t-12 5t-21 2.5l-27 2v32h268v-32l-16 -2q-13 -2 -20.5 -3t-11 -5t-4.5 -11.5t-1 -20.5v-142h146v142q0 13 -1 20.5t-4.5 11.5t-11 5t-20.5 3l-16 2v32h268v-32l-27 -2q-13 -1 -21 -2.5t-12 -5t-5.5 -11.5t-1.5 -21v-387h81l8 -198h-22 l-88 144q-5 7 -8.5 10t-12.5 3h-159v32l16 2q13 1 20.5 2.5t11 5.5t4.5 11t1 21v161h-146v-161q0 -14 1 -21t4.5 -11t11 -5.5t20.5 -2.5l16 -2v-32h-268v32l27 2q13 1 21 2.5t12 5t5.5 11t1.5 21.5v354z"></glyph><glyph glyph-name="uni04AF" unicode="ү" d="M137 -216l27 2q26 2 33 6t7 24v184l-134 413q-9 29 -21 40.5t-38 14.5l-16 2v32h286v-32l-21 -2q-26 -2 -33 -13.5t1 -35.5l105 -323l95 295q14 42 6.5 57.5t-33.5 18.5l-28 3v32h199v-32l-20 -2q-27 -3 -42 -15.5t-26 -44.5l-132 -408v-184q0 -20 7 -24t33 -6l27 -2v-32 h-282v32z"></glyph><glyph glyph-name="uni04B1" unicode="ұ" d="M92 0h112l-134 413q-9 29 -21 40.5t-38 14.5l-16 2v32h286v-32l-21 -2q-26 -2 -33 -13.5t1 -35.5l105 -323l95 295q14 42 6.5 57.5t-33.5 18.5l-28 3v32h199v-32l-20 -2q-27 -3 -42 -15.5t-26 -44.5l-132 -408h111v-51h-111v-133q0 -20 7 -24t33 -6l27 -2v-32h-282v32 l27 2q26 2 33 6t7 24v133h-112v51z"></glyph><glyph glyph-name="uni04B3" unicode="ҳ" d="M-2 32l20 2q27 3 56.5 22.5t71.5 61.5l107 109l-140 186q-18 24 -32.5 38t-40.5 17l-16 2v32h298v-32l-21 -2q-26 -2 -29.5 -15.5t11.5 -33.5l69 -92l63 64q32 32 30.5 52.5t-27.5 23.5l-28 3v32h226v-32l-20 -2q-27 -3 -56.5 -22t-68.5 -58l-93 -95l189 -252h67l8 -198 h-22l-88 144q-5 7 -8.5 10t-12.5 3h-189v32l21 2q26 2 29.5 15.5t-11.5 33.5l-82 109l-80 -81q-32 -32 -30.5 -52.5t27.5 -23.5l28 -3v-32h-226v32z"></glyph><glyph glyph-name="uni04B7" unicode="ҷ" d="M81 428q0 13 -1.5 21t-5.5 11.5t-12 5t-21 2.5l-27 2v32h268v-32l-16 -2q-13 -2 -20.5 -3t-11 -5t-4.5 -11.5t-1 -20.5v-65q0 -62 14.5 -88.5t55.5 -26.5q15 0 32 4.5t34 11.5v164q0 13 -1 20.5t-4.5 11.5t-11 5t-20.5 3l-16 2v32h268v-32l-27 -2q-13 -1 -21 -2.5t-12 -5 t-5.5 -11.5t-1.5 -21v-387h81l8 -198h-22l-88 144q-5 7 -8.5 10t-12.5 3h-182v32l39 2q13 1 20.5 2t11 5t4.5 11.5t1 21.5v148q-16 -5 -42.5 -11.5t-68.5 -6.5q-41 0 -73.5 8t-54.5 26.5t-33.5 49t-11.5 75.5v65z"></glyph><glyph glyph-name="uni04BB" unicode="һ" d="M21 32l27 2q13 1 21 2.5t12 5t5.5 11t1.5 21.5v581l-76 64v6l224 77v-401q17 55 54.5 87.5t97.5 32.5q30 0 56 -9t45 -30.5t30 -57.5t11 -90v-260q0 -14 1.5 -21.5t5.5 -11t12 -5t21 -2.5l27 -2v-32h-271v32l19 2q13 1 20.5 2.5t11 5.5t4.5 11t1 21v232q0 39 -5 63.5 t-14 39t-21.5 19.5t-27.5 5t-29 -5.5t-25 -19.5t-17.5 -39t-6.5 -64v-231q0 -14 1 -21t4.5 -11t11 -5.5t20.5 -2.5l19 -2v-32h-271v32z"></glyph><glyph glyph-name="uni04CF" unicode="ӏ" d="M92 684q0 13 -1.5 21t-5.5 11.5t-12 5t-21 2.5l-27 2v32h282v-32l-27 -2q-13 -1 -21 -2.5t-12 -5t-5.5 -11.5t-1.5 -21v-610q0 -14 1.5 -21.5t5.5 -11t12 -5t21 -2.5l27 -2v-32h-282v32l27 2q13 1 21 2.5t12 5t5.5 11t1.5 21.5v610z"></glyph><glyph glyph-name="uni04D9" unicode="ә" d="M290.982 520.968q61.9961 0 110.993 -20.498q48.9971 -20.499 82.9951 -55.4971t51.9961 -82.9951q17.999 -47.9971 17.999 -103.993q0 -61.9961 -22.498 -111.993q-22.499 -49.9971 -58.9971 -85.4951q-36.4971 -35.498 -83.4941 -54.4961 q-46.9971 -18.999 -95.9941 -18.999q-94.9941 0 -159.49 50.9971q-64.4961 50.9961 -84.4951 153.99h354.979q0 48.9971 -12.999 91.4941q-13 42.498 -36.998 73.9961q-23.999 31.498 -57.9971 49.4971q-33.9971 17.998 -76.9951 17.998q-24.998 0 -49.9971 -7.49902 q-24.998 -7.5 -46.4971 -22.499q-21.498 -14.999 -37.9971 -37.9971q-16.499 -22.999 -24.499 -54.9971h-28.998q16.999 109.993 84.4951 164.49q67.4951 54.4961 174.489 54.4961zM299.981 20.999q41.998 0 68.9961 33.498q26.998 33.4971 33.998 95.4941h-188.988 q1.99902 -69.9961 24.998 -99.4941t60.9961 -29.498z"></glyph><glyph glyph-name="uni04E3" unicode="ӣ" d="M101 428q0 13 -1.5 21t-5.5 11.5t-12 5t-21 2.5l-27 2v32h268v-32l-16 -2q-13 -2 -20.5 -3t-11 -5t-4.5 -11.5t-1 -20.5v-269l156 259v10q0 13 -1 20.5t-4.5 11.5t-11 5t-20.5 3l-16 2v32h268v-32l-27 -2q-13 -1 -21 -2.5t-12 -5t-5.5 -11.5t-1.5 -21v-354 q0 -14 1.5 -21.5t5.5 -11t12 -5t21 -2.5l27 -2v-32h-268v32l16 2q13 1 20.5 2.5t11 5.5t4.5 11t1 21v263l-156 -259v-4q0 -14 1 -21t4.5 -11t11 -5.5t20.5 -2.5l16 -2v-32h-268v32l27 2q13 1 21 2.5t12 5t5.5 11t1.5 21.5v354zM170 737h314v-68h-314v68z"></glyph><glyph glyph-name="uni04E9" unicode="ө" d="M310 -13q-62 0 -113 21t-87 56.5t-56 83t-20 101.5q0 60 22 110t59.5 86t88.5 56t110 20q62 0 113 -21t87 -56.5t56 -83t20 -101.5q0 -60 -22 -110t-59.5 -86t-89 -56t-109.5 -20zM312 28q22 0 41.5 10.5t34.5 34.5t24 63.5t10 98.5h-223q1 -59 10.5 -98.5t24.5 -63.5 t35 -34.5t43 -10.5zM312 482q-23 0 -42.5 -10t-34.5 -32.5t-24.5 -60.5t-11.5 -93h223q-2 55 -11.5 93t-24 60.5t-33.5 32.5t-41 10z"></glyph><glyph glyph-name="uni04EF" unicode="ӯ" d="M252 -5l-179 418q-12 28 -22.5 40t-36.5 15l-16 2v32h286v-32l-21 -2q-51 -4 -32 -49l102 -247l99 219q18 41 8.5 57t-35.5 19l-28 3v32h198v-32l-20 -2q-27 -3 -40.5 -15.5t-27.5 -44.5l-248 -542q-29 -63 -56.5 -92t-69.5 -29q-33 0 -52 22t-19 53q0 21 12 40t34 31.5 t54 18.5t72 2zM152 737h314v-68h-314v68z"></glyph><glyph glyph-name="uni0414.aalt" d="M95 46l303 743h20l302 -743h70l8 -225h-22l-110 167q-5 7 -10 9.5t-16 2.5h-477q-12 0 -16.5 -2.5t-9.5 -9.5l-110 -167h-22l8 225h82zM153 46h396l-198 487z"></glyph><glyph glyph-name="uni041B.aalt" d="M698.957 84.9951q11 -25.999 24.499 -33.998q13.499 -8 39.4971 -10.999l32.998 -4v-35.998h-344.979v35.998l42.9971 4q25.999 1.99902 35.498 10.499q9.49902 8.49902 -1.5 34.498l-195.988 468.971l-197.987 -468.971q-11 -25.999 -1.5 -34.498 q9.49902 -8.5 35.498 -10.499l42.9971 -4v-35.998h-231.986v35.998l32.998 4q25.999 2.99902 39.498 10.999q13.499 7.99902 24.498 33.998l301.981 703.957h19.999z"></glyph><glyph glyph-name="uni0432.aalt" d="M279 -13q-116 0 -172.5 54t-56.5 175v318q0 58 12 104t37.5 77.5t66.5 48t99 16.5q45 0 84.5 -11.5t68.5 -34.5t46 -57t17 -78q0 -33 -11.5 -66t-35.5 -61t-60.5 -48t-87.5 -29q51 -4 95 -19t75.5 -40.5t49.5 -61.5t18 -82q0 -48 -19 -86.5t-52 -64.5t-77.5 -40 t-96.5 -14zM198 411h18q34 0 53.5 17t30 42t13.5 54.5t3 54.5q0 87 -14.5 124t-42.5 37q-15 0 -26.5 -7.5t-19 -25.5t-11.5 -48t-4 -75v-173zM280 26q18 0 33 8t25 26t15.5 48t5.5 74q0 92 -34.5 141t-106.5 49h-20v-189q0 -89 22 -123t60 -34z"></glyph><glyph glyph-name="uni0433.aalt" d="M238 -13q-40 0 -76 10t-63 29.5t-42.5 46.5t-15.5 62q0 32 10 56t29.5 44t48 37.5t66.5 36.5l43 22q34 17 56.5 38t22.5 53t-24.5 47.5t-58.5 15.5h-12t-13 -2q-12 -2 -19 -8t-18 -21l-89 -123h-22l19 170q36 11 79 15.5t78 4.5q42 0 77 -9.5t60.5 -28.5t40 -48t14.5 -69 q0 -32 -9 -56.5t-26.5 -44t-42.5 -35.5t-56 -32l-53 -27q-35 -18 -56.5 -36.5t-21.5 -47.5q0 -17 8.5 -28.5t21 -19t28 -11t30.5 -3.5q9 0 16 0.5t17 2.5q12 3 22.5 11t22.5 26l88 134h22l-26 -188q-48 -14 -89.5 -19t-86.5 -5z"></glyph><glyph glyph-name="uni0434.aalt" d="M245 -13q-42 0 -79.5 17.5t-66 51.5t-45.5 84t-17 115q0 60 18 109t49.5 84t73 54t89.5 19q45 0 78.5 -17t52.5 -41l123 63l7 -4v-535q0 -68 -19.5 -114t-51.5 -74.5t-74.5 -41t-88.5 -12.5q-51 0 -93.5 8t-72.5 23t-47 38t-17 53q0 32 20.5 52t71.5 20q11 0 24 -1t27 -3 q0 -82 24 -119t66 -37q45 0 64 35.5t19 118.5v116q-24 -27 -59.5 -44.5t-75.5 -17.5zM202 256q0 -45 9 -81.5t25.5 -63t38 -41t47.5 -14.5q14 0 29 4t29 16v364q-12 13 -26.5 18t-28.5 5q-53 0 -88 -54t-35 -153z"></glyph><glyph glyph-name="uni0436.aalt" d="M-8 0l260 306l-126 112l-24.5 21t-20.5 15t-22 9.5t-28 4.5l-27 2v32h259v-32l-58 -2q-26 -1 -30 -16t17 -34l187 -167v404l-76 64v6l224 77v-551l187 167q21 19 17 34t-30 16l-58 2v32h259v-32l-27 -2q-17 -1 -29.5 -4.5t-24 -9.5t-23 -15t-25.5 -21l-117 -104l268 -314 h-191l-206 238v-155q0 -27 10 -37t36 -12l21 -2v-32h-282v32l21 2q26 2 36 12t10 37v155l-206 -238h-181z"></glyph><glyph glyph-name="uni0437.aalt" d="M241 -255q-53 0 -96.5 11t-74.5 32t-48 51.5t-17 69.5q0 32 20.5 52t71.5 20q11 0 24 -1t27 -3q0 -104 20 -151t71 -47q38 0 61 39.5t23 133.5q0 55 -10 91t-28 57t-42.5 29.5t-53.5 8.5h-58v51h57q47 0 72.5 37t25.5 112q0 30 -3.5 57t-11.5 47t-20 31.5t-30 11.5h-8 t-12 -2q-12 -3 -19.5 -8.5t-17.5 -20.5l-89 -133h-22l19 180q32 10 70.5 15t78.5 5q50 0 92 -10.5t73 -32.5t48 -55t17 -78q0 -66 -43.5 -112.5t-120.5 -64.5v-1q41 -3 77.5 -19t64 -43t43.5 -64.5t16 -83.5q0 -45 -16 -83.5t-47.5 -67t-77.5 -45t-106 -16.5z"></glyph><glyph glyph-name="uni0438.aalt" d="M228 -13q-30 0 -56 9t-45 30.5t-30 57.5t-11 90v271l-65 25v32h213v-300q0 -39 5 -63.5t14 -39t21.5 -19.5t27.5 -5t29 5.5t25 19.5t17.5 39t6.5 64v242l-65 25v32h213v-436h73v-32l-221 -45v118q-17 -55 -54.5 -87.5t-97.5 -32.5z"></glyph><glyph glyph-name="uni0439.aalt" d="M228 -13q-30 0 -56 9t-45 30.5t-30 57.5t-11 90v271l-65 25v32h213v-300q0 -39 5 -63.5t14 -39t21.5 -19.5t27.5 -5t29 5.5t25 19.5t17.5 39t6.5 64v242l-65 25v32h213v-436h73v-32l-221 -45v118q-17 -55 -54.5 -87.5t-97.5 -32.5zM315 628q-47 0 -81 13t-56 35.5 t-32.5 51t-10.5 60.5h113q0 -40 6.5 -65t16 -38.5t21.5 -18t23 -4.5t23 4.5t21.5 18t16 38.5t6.5 65h113q0 -35 -13 -64.5t-37 -50.5t-57 -33t-73 -12z"></glyph><glyph glyph-name="uni043A.aalt" d="M21 32l21 2q26 2 36 12t10 37v572l-76 64v6l224 77v-541l177 157q21 19 17 33.5t-30 16.5l-38 2v32h239v-32l-27 -2q-16 -2 -28.5 -5.5t-24 -9.5t-22.5 -14.5t-25 -20.5l-106 -91l283 -327h-199l-216 248v-165q0 -27 10 -37t36 -12l21 -2v-32h-282v32z"></glyph><glyph glyph-name="uni043B.aalt" d="M491.97 88.9941q11.999 -27.998 22.499 -39.9971q10.499 -11.999 36.498 -14.999l15.999 -2v-31.998h-285.983v31.998l20.999 2q51.9971 4 31.998 48.9971l-107.993 241.985l-91.9941 -213.987q-16.999 -40.9971 -8 -56.9961q9 -15.999 34.998 -18.999l27.998 -3v-31.998 h-198.987v31.998l19.998 2q26.999 3 40.498 15.499t27.498 44.4971l185.989 419.975h39.9971z"></glyph><glyph glyph-name="uni043D.aalt" d="M36 470v32h213v-216h146v159l-65 25v32h213v-428q0 -14 1.5 -21.5t5.5 -11t12 -5t21 -2.5l27 -2v-32h-268v32l16 2q13 1 20.5 2.5t11 5.5t4.5 11t1 21v161h-146v-161q0 -14 1 -21t4.5 -11t11 -5.5t20.5 -2.5l16 -2v-32h-268v32l27 2q13 1 21 2.5t12 5t5.5 11t1.5 21.5 v371z"></glyph><glyph glyph-name="uni043F.aalt" d="M34 32l27 2q13 1 21 2.5t12 5t5.5 11t1.5 21.5v283l-76 72v6l224 94v-128q17 55 54.5 87.5t97.5 32.5q30 0 56 -9t45 -30.5t30 -57.5t11 -90v-260q0 -14 1.5 -21.5t5.5 -11t12 -5t21 -2.5l27 -2v-32h-271v32l19 2q13 1 20.5 2.5t11 5.5t4.5 11t1 21v232q0 39 -5 63.5 t-14 39t-21.5 19.5t-27.5 5t-29 -5.5t-25 -19.5t-17.5 -39t-6.5 -64v-231q0 -14 1 -21t4.5 -11t11 -5.5t20.5 -2.5l19 -2v-32h-271v32z"></glyph><glyph glyph-name="uni0442.aalt" d="M305 0h-271v32l27 2q13 1 21 2.5t12 5t5.5 11t1.5 21.5v283l-76 72v6l224 94v-128q17 55 54.5 87.5t97.5 32.5q51 0 88 -26.5t49 -96.5q18 59 58 91t99 32q30 0 56 -9t45 -30.5t30 -57.5t11 -90v-260q0 -14 1.5 -21.5t5.5 -11t12 -5t21 -2.5l27 -2v-32h-271v32l19 2 q13 1 20.5 2.5t11 5.5t4.5 11t1 21v232q0 39 -5 63.5t-14 39t-21.5 19.5t-27.5 5t-29 -5.5t-25 -19.5t-17.5 -39t-6.5 -64v-231q0 -14 1 -21t4.5 -11t11 -5.5t20.5 -2.5l19 -2v-32h-260v32l19 2q13 1 20.5 2.5t11 5.5t4.5 11t1 21v232q0 39 -5 63.5t-14 39t-21.5 19.5 t-27.5 5t-29 -5.5t-25 -19.5t-17.5 -39t-6.5 -64v-231q0 -14 1 -21t4.5 -11t11 -5.5t20.5 -2.5l19 -2v-32z"></glyph><glyph glyph-name="uni0447.aalt" d="M229 360q0 -62 14.5 -88.5t55.5 -26.5q15 0 32 4.5t34 11.5v184l-65 25v32h213v-428q0 -14 1.5 -21.5t5.5 -11t12 -5t21 -2.5l27 -2v-32h-291v32l39 2q13 1 20.5 2t11 5t4.5 11.5t1 21.5v145q-16 -5 -42.5 -11.5t-68.5 -6.5q-41 0 -73.5 8t-54.5 26.5t-33.5 49 t-11.5 75.5v85l-65 25v32h213v-142z"></glyph><glyph glyph-name="uni0446.aalt" d="M380 0v107q-17 -55 -54.5 -87.5t-97.5 -32.5q-30 0 -56 9t-45 30.5t-30 57.5t-11 90v271l-65 25v32h213v-300q0 -39 5 -63.5t14 -39t21.5 -19.5t27.5 -5t29 5.5t25 19.5t17.5 39t6.5 64v242l-65 25v32h213v-461h81l8 -198h-22l-88 144q-5 7 -8.5 10t-12.5 3h-106z"></glyph><glyph glyph-name="uni0448.aalt" d="M321 470v32h213v-306q0 -39 5 -63.5t14 -39t21.5 -19.5t27.5 -5t29 5.5t25 19.5t17.5 39t6.5 64v248l-65 25v32h213v-436h73v-32l-221 -45v112q-17 -55 -54.5 -87.5t-97.5 -32.5q-51 0 -88 26.5t-49 96.5q-18 -59 -58 -91t-99 -32q-30 0 -56.5 9t-45.5 30.5t-29.5 57.5 t-10.5 90v277l-65 25v32h213v-306q0 -39 5 -63.5t14 -39t21.5 -19.5t27.5 -5t29 5.5t25 19.5t17.5 39t6.5 64v248z"></glyph><glyph glyph-name="uni0449.aalt" d="M680 101q-17 -55 -54.5 -87.5t-97.5 -32.5q-51 0 -88 26.5t-49 96.5q-18 -59 -58 -91t-99 -32q-30 0 -56.5 9t-45.5 30.5t-29.5 57.5t-10.5 90v277l-65 25v32h213v-306q0 -39 5 -63.5t14 -39t21.5 -19.5t27.5 -5t29 5.5t25 19.5t17.5 39t6.5 64v248l-65 25v32h213v-306 q0 -39 5 -63.5t14 -39t21.5 -19.5t27.5 -5t29 5.5t25 19.5t17.5 39t6.5 64v248l-65 25v32h213v-461h81l8 -198h-22l-88 144q-5 7 -8.5 10t-12.5 3h-106v101z"></glyph><glyph glyph-name="uni044E.aalt" d="M25 32l27 2q13 1 21 2.5t12 5t5.5 11t1.5 21.5v581l-76 64v6l224 77v-516h71q6 52 29 95.5t57.5 74.5t78.5 48t93 17q56 0 103 -21t81 -56.5t53 -83t19 -101.5q0 -60 -21 -110t-56.5 -86t-82.5 -56t-100 -20q-54 0 -100 19.5t-80 53t-53.5 79t-22.5 96.5h-69v-161 q0 -14 1.5 -21.5t5.5 -11t12 -5t21 -2.5l27 -2v-32h-282v32zM567 28q21 0 38 11.5t28.5 37.5t18 69.5t6.5 108.5q0 64 -6.5 108t-18 70t-28.5 37.5t-38 11.5q-22 0 -39 -11.5t-29 -37.5t-18.5 -70t-6.5 -108q0 -65 6.5 -108.5t18.5 -69.5t29 -37.5t39 -11.5z"></glyph><glyph glyph-name="uni044C.aalt" d="M547 159q0 -37 -16 -68.5t-47 -54.5t-75 -36t-101 -13q-60 0 -102.5 13t-69 38t-38.5 61.5t-12 83.5v262l-65 25v32h213v-184h59q124 0 189 -43t65 -116zM308 28q38 0 56 31.5t18 90.5q0 65 -34.5 96t-97.5 31h-16v-125q0 -63 17.5 -93.5t56.5 -30.5z"></glyph><glyph glyph-name="uni044A.aalt" d="M423 -13q-60 0 -102.5 13t-69 38t-38.5 61.5t-12 83.5v283h-26q-9 0 -13 -3t-10 -11l-118 -141h-19l27 191h307v-184h59q124 0 189 -43t65 -116q0 -37 -16 -68.5t-47 -54.5t-75 -36t-101 -13zM349 152q0 -63 17.5 -93.5t56.5 -30.5q38 0 56 31.5t18 90.5q0 65 -34.5 96 t-97.5 31h-16v-125z"></glyph><glyph glyph-name="uni0431.aalt" d="M308 513q53 -7 100.5 -26t83.5 -52t57 -79.5t21 -109.5q0 -62 -23.5 -110.5t-62 -81.5t-87 -50t-97.5 -17t-97 17t-85.5 50t-60.5 81.5t-23 110.5q0 46 15.5 86.5t42.5 72.5t65 53.5t83 30.5q-87 22 -127.5 56t-40.5 86q0 25 10 48.5t31.5 40.5t55 27.5t80.5 10.5h167 q28 0 45 2t27 7t13.5 13.5t3.5 20.5h30q0 -47 -7 -79t-26 -51t-52 -27t-84 -8h-146q-46 0 -61.5 -9.5t-15.5 -28.5q0 -12 8.5 -24t28 -23.5t51 -21.5t77.5 -16zM301 472q-44 0 -73 -55t-29 -171q0 -218 102 -218t102 218q0 116 -29 171t-73 55z"></glyph><glyph glyph-name="glyph489" d="M0 628q-47 0 -81 13t-56 35.5t-32.5 51t-10.5 60.5h113q0 -40 6.5 -65t16 -38.5t21.5 -18t23 -4.5t23 4.5t21.5 18t16 38.5t6.5 65h113q0 -35 -13 -64.5t-37 -50.5t-57 -33t-73 -12z"></glyph><glyph glyph-name="glyph490" d="M2 827q-47 0 -81 13t-56 35.5t-32.5 51t-10.5 60.5h113q0 -40 6.5 -65t16 -38.5t21.5 -18t23 -4.5t23 4.5t21.5 18t16 38.5t6.5 65h113q0 -35 -13 -64.5t-37 -50.5t-57 -33t-73 -12z"></glyph><glyph glyph-name="uni20BD" unicode="₽" d="M46 36l45 4q26 2 35 11t9 38v132h-70v54h70v59h-70v54h70v281q0 29 -9 38t-35 11l-45 4v36h330q71 0 132.5 -9t106.5 -32.5t71 -63t26 -99.5t-26 -102t-71 -68.5t-106.5 -38t-132.5 -11.5h-81v-59h263v-54h-263v-132q0 -29 9 -37t35 -10l80 -4v-38h-373v36zM295 388h74 q90 0 128 38.5t38 121.5t-38 124.5t-128 41.5h-74v-326z"></glyph><glyph glyph-name="uni20B4" unicode="₴" d="M50 483h306q51 29 76.5 63.5t25.5 77.5q0 51 -31 79.5t-102 28.5q-17 0 -32 -3q-10 -2 -16 -5.5t-18 -20.5l-140 -186h-22l48 235q18 7 40 12t45.5 8.5t47 5t44.5 1.5q55 0 104 -10t86 -32.5t59 -58t22 -86.5q0 -29 -8 -57.5t-27 -51.5h50v-54h-558v54zM50 370h558v-54 h-273q-75 -29 -105.5 -70t-30.5 -95q0 -60 38.5 -89t98.5 -29q31 0 58 6q12 3 22.5 9t24.5 26l140 196h22l-47 -246q-51 -21 -107 -29t-108 -8q-57 0 -107.5 12t-89 37t-60.5 63.5t-22 90.5q0 47 15 76.5t35 49.5h-62v54z"></glyph><glyph glyph-name="uni20B8" unicode="₸" d="M48 758h690l3 -54h-697zM197 38l70 4q26 2 35 10t9 37v515h-107q-16 0 -22.5 -2.5t-14.5 -15.5l-128 -212h-22l22 271h704l22 -271h-22l-128 212q-8 13 -14.5 15.5t-22.5 2.5h-107v-515q0 -29 9 -37t35 -10l70 -4v-38h-388v38z"></glyph><glyph glyph-name="ellipsis" unicode="…" d="M138 -13q-20 0 -37 7.5t-30 21t-20.5 31.5t-7.5 39q0 19 7.5 36.5t20.5 30.5t30 20.5t37 7.5q21 0 39 -7.5t31.5 -20.5t21 -30.5t7.5 -36.5q0 -42 -28.5 -70.5t-70.5 -28.5zM492 -13q-20 0 -37 7.5t-30 21t-20.5 31.5t-7.5 39q0 19 7.5 36.5t20.5 30.5t30 20.5t37 7.5 q21 0 39 -7.5t31.5 -20.5t21 -30.5t7.5 -36.5q0 -42 -28.5 -70.5t-70.5 -28.5zM846 -13q-20 0 -37 7.5t-30 21t-20.5 31.5t-7.5 39q0 19 7.5 36.5t20.5 30.5t30 20.5t37 7.5q21 0 39 -7.5t31.5 -20.5t21 -30.5t7.5 -36.5q0 -42 -28.5 -70.5t-70.5 -28.5z"></glyph><glyph glyph-name="endash" unicode="–" d="M56 300h534v-75h-534v75z"></glyph><glyph glyph-name="emdash" unicode="—" d="M56 300h960v-75h-960v75z"></glyph><glyph glyph-name="guilsinglleft" unicode="‹" d="M285 27l-13 -9l-238 233l238 233l13 -9l-116 -225z"></glyph><glyph glyph-name="guilsinglright" unicode="›" d="M172 250l-116 225l13 9l238 -233l-238 -233l-13 9z"></glyph><glyph glyph-name="quoteleft" unicode="‘" d="M247 776q-94 -55 -94 -130q0 -71 96 -92q1 -22 -6.5 -42t-21 -35.5t-33.5 -24.5t-44 -9q-44 0 -73.5 29t-29.5 83q0 35 13.5 70.5t38 68.5t59.5 62.5t78 52.5z"></glyph><glyph glyph-name="quoteright" unicode="’" d="M51 462q94 55 94 130q0 71 -96 92q-1 22 6.5 42t21 35.5t33.5 24.5t44 9q44 0 73.5 -29t29.5 -83q0 -35 -13.5 -70.5t-38 -68.5t-59.5 -62.5t-78 -52.5z"></glyph></font>
</defs>
</svg>
